Артур і мініпути: Трилогія / Arthur et les Minimoys, Arthur et la vengeance de Maltazard, Arthur 3: la guerre des deux mondes - Trilogy (2006, 2009, 2010) 720p Ukr/Eng | Sub Ukr/Eng

Нові коментарі

Нова тема   Відповісти
Автор Повідомлення
Anonymous 







2014-12-23 22:43  
Артур і мініпути / Артур та помста Вурдалака / Артур і війна двох світів - Трилогія

Arthur et les Minimoys / Arthur et la vengeance de Maltazard / Arthur 3: la guerre des deux mondes - Trilogie

Arthur and the Invisibles / Arthur and the Revenge of Maltazard / Arthur 3: The War of the Two Worlds - Trilogy
(2006, 2009, 2010) 720p Ukr/Eng | Sub Ukr/Eng




Жанр: анімація, фентезі, пригодницький, сімейний
Країна: Франція
Режисер: Люк Бесон / Luc Besson

Рейтинг MPAA: PG - рекомендується присутність батьків
Вікова категорія: 12+


Артур і мініпути / Arthur et les Minimoys / Arthur and the Invisibles (2006) 720p 2xUkr/Eng | Sub Ukr/Eng

Артур і мініпути / Arthur et les Minimoys / Arthur and the Invisibles (2006) 720p 2xUkr/Eng | Sub Ukr/Eng



Альтернативний постер



Жанр: анімація, фентезі, пригодницький, сімейний
Країна: Франція



Кінокомпанія: EuropaCorp, Avalanche Productions, Canal+, Sofica Europacorp
Режисер: Люк Бесон / Luc Besson
Актори: Фредді Гаймор, Міа Ферроу, Рон Кроуфорд, Пенні Бальфур, Даг Ренд, Адам Лефевр, Жан Бежот Нжамба, Сауль Джефкотт, Лі Делонг, Крістіан Еріксон та інші

Сюжет:
На долю десятирічного Артура випали непрості випробування: будинок його бабусі мають відібрати за борги, і ніхто не допоможе йому у цій справі. Можливо, ключ до вирішення проблеми - десь у скарбах його дідуся, які сховані у країні мініпутів, казкових крихітних створінь.
В країні мініпутів Артур знайомиться з принцесою Селенією та її братом Бетамешем. На них чекає багато захопливих пригод, небезпека та інтриги на шляху, який приведе їх у загадкове місто Некрополіс. Там дитячій компанії доведеться пережити недитячі страхи, зустрівшись з жахливим Вурдалакою...


Рейтинг MPAA: PG - рекомендується присутність батьків
Вікова категорія: 12+

Тривалість: 01:43:42
Якість: 720p
Відео:
кодек:
розмір кадру: 1280 x 544
бітрейт: 4611 кбіт/с

Аудіо # 1:
мова: українська
переклад: багатоголосий закадровий
кодек: 2.0
бітрейт: 192 кбіт/с

Аудіо # 2:
мова: українська
переклад: багатоголосий закадровий
кодек: 2.0
бітрейт: 192 кбіт/с

Аудіо # 3:
мова: англійська
переклад: оригінал
кодек: 5.1
бітрейт: 1509 кбіт/с

Субтитри #1:
мова: українська
тип: програмні (м'які)
формат: *.ass

Субтитри #2:
мова: англійська
тип: програмні (м'які)
формат: *.srt
Info
Код:
General
Unique ID                   : 245304220630703526129374049063702983230 (0xB88BDFD8A90C6439B94822AA17B9723E)
Complete name               : Arthur et les Minimoys (2006) [2xUkr,Eng sub.Ukr,Eng] 720p [Hurtom & HDClub].
Format                      :
Format version              : Version 4 / Version 2
File size                   : 4.70 GiB
Duration                    : 1h 43mn
Overall bit rate            : 6 486 Kbps
Movie name                  : Артур і мініпути / Arthur and the Invisibles / Arthur et les Minimoys (2006) 720p 2xUkr,Eng sub.Ukr,Eng [Hurtom & HDClub]
Encoded date                : UTC 2014-12-22 14:54:00
Writing application         : mkvmerge v7.4.0 ('Circles') 64bit built on Dec 12 2014 12:19:56
Writing library             : libebml v1.3.0 + libmatroska v1.4.1
DURATION                    : 01:42:48.187000000
NUMBER_OF_FRAMES            : 1451
NUMBER_OF_BYTES             : 57258
_STATISTICS_WRITING_APP     : mkvmerge v7.4.0 ('Circles') 64bit built on Dec 12 2014 12:19:56
_STATISTICS_WRITING_DATE_UT : 2014-12-22 14:54:00
_STATISTICS_TAGS            : BPS DURATION NUMBER_OF_FRAMES NUMBER_OF_BYTES

Video
ID                          : 1
Format                      : AVC
Format/Info                 : Advanced Video Codec
Format profile              : High@L5.1
Format settings, CABAC      : Yes
Format settings, ReFrames   : 8 frames
Codec ID                    : V_MPEG4/ISO/AVC
Duration                    : 1h 43mn
Bit rate                    : 4 611 Kbps
Width                       : 1 280 pixels
Height                      : 544 pixels
Display aspect ratio        : 2.35:1
Frame rate mode             : Constant
Frame rate                  : 24.000 fps
Color space                 : YUV
Chroma subsampling          : 4:2:0
Bit depth                   : 8 bits
Scan type                   : Progressive
Bits/(Pixel*Frame)          : 0.276
Stream size                 : 3.19 GiB (68%)
Title                       : Артур і мініпути / Arthur and the Invisibles / Arthur et les Minimoys / Артур и минипуты (2006) 720p [HDClub]
Writing library             : core 56 svn-680
Encoding settings           : cabac=1 / ref=5 / deblock=1:-3:-2 / analyse=0x1:0 / me=umh / subme=7 / brdo=1 / mixed_ref=1 / me_range=16 / chroma_me=1 / trellis=1 / 8x8dct=0 / cqm=2 / deadzone=21,11 / chroma_qp_offset=0 / threads=4 / nr=0 / decimate=1 / mbaff=0 / bframes=3 / b_pyramid=1 / b_adapt=1 / b_bias=0 / direct=1 / wpredb=1 / bime=1 / keyint=250 / keyint_min=25 / scenecut=40(pre) / rc=2pass / bitrate=4611 / ratetol=1.0 / rceq='blurCplx^(1-qComp)' / qcomp=0.60 / qpmin=10 / qpmax=51 / qpstep=4 / cplxblur=20.0 / qblur=0.5 / ip_ratio=1.40 / pb_ratio=1.30
Language                    : English
Default                     : Yes
Forced                      : No
DURATION                    : 01:41:46.880000000
NUMBER_OF_FRAMES            : 146565
NUMBER_OF_BYTES             : 3520157018
_STATISTICS_WRITING_APP     : mkvmerge v7.4.0 ('Circles') 64bit built on Dec 12 2014 12:19:56
_STATISTICS_WRITING_DATE_UT : 2014-12-22 14:54:00
_STATISTICS_TAGS            : BPS DURATION NUMBER_OF_FRAMES NUMBER_OF_BYTES

Audio #1
ID                          : 2
Format                      : AC-3
Format/Info                 : Audio Coding 3
Mode extension              : CM (complete main)
Format settings, Endianness : Big
Codec ID                    : A_AC3
Duration                    : 1h 43mn
Bit rate mode               : Constant
Bit rate                    : 256 Kbps
Channel(s)                  : 2 channels
Channel positions           : Front: L R
Sampling rate               : 48.0 KHz
Bit depth                   : 16 bits
Compression mode            : Lossy
Stream size                 : 190 MiB (4%)
Title                       : MVO [1+1] 2.0 256 kbps [Hurtom-taraskill1]
Language                    : Ukrainian
Default                     : Yes
Forced                      : No

Audio #2
ID                          : 3
Format                      : AC-3
Format/Info                 : Audio Coding 3
Format profile              : Dolby Digital
Mode extension              : CM (complete main)
Format settings, Endianness : Big
Codec ID                    : A_AC3
Duration                    : 1h 43mn
Bit rate mode               : Constant
Bit rate                    : 192 Kbps
Channel(s)                  : 2 channels
Channel positions           : Front: L R
Sampling rate               : 48.0 KHz
Bit depth                   : 16 bits
Compression mode            : Lossy
Stream size                 : 142 MiB (3%)
Title                       : MVO [Inter] 2.0 192 kbps [Hurtom-taraskill1]
Language                    : Ukrainian
Default                     : No
Forced                      : No

Audio #3
ID                          : 4
Format                      :
Format/Info                 : Digital Theater Systems
Mode                        : 16
Format settings, Endianness : Big
Codec ID                    : A_DTS
Duration                    : 1h 43mn
Bit rate mode               : Constant
Bit rate                    : 1 509 Kbps
Channel(s)                  : 6 channels
Channel positions           : Front: L C R, Side: L R, LFE
Sampling rate               : 48.0 KHz
Bit depth                   : 24 bits
Compression mode            : Lossy
Stream size                 : 1.09 GiB (23%)
Title                       : Original 5.1 1509 kbps
Language                    : English
Default                     : No
Forced                      : No

Text #1
ID                          : 5
Format                      : ASS
Codec ID                    : S_TEXT/ASS
Codec ID/Info               : Advanced Sub Station Alpha
Compression mode            : Lossless
Language                    : Ukrainian
Default                     : No
Forced                      : No

Text #2
ID                          : 6
Format                      : UTF-8
Codec ID                    : S_TEXT/UTF8
Codec ID/Info               : UTF-8 Plain Text
Language                    : English
Default                     : No
Forced                      : No




Джерела та подяки: &
ріп відео, оригінальні звук та субтитри - HDClub; українські доріжки - taraskill1 - зведення, xslim - запис з ТБ; українські субтитри - Hentaihunter - витягнення з ліцензійного DVD, розпізнавання та редагування; українізовані постери - офіційні (всі - Гуртом).

Артур та помста Вурдалака / Arthur et la vengeance de Maltazard / Arthur and the Revenge of Maltazard (2009) 720p 2xUkr/Eng | Sub Ukr/Eng

Артур та помста Вурдалака / Arthur et la vengeance de Maltazard / Arthur and the Revenge of Maltazard (2009) 720p 2xUkr/Eng | Sub Ukr/Eng



Жанр: анімація, фентезі, пригодницький, сімейний
Країна: Франція



Кінокомпанія: EuropaCorp, TF1 Films Production, Apipoulaï, Avalanche Productions, Canal+, Sofica Europacorp
Режисер: Люк Бесон / Luc Besson
Актори: Селена Гомес / Selena Gomez, Фредді Хаймор / Freddie Highmore, Стейсі Фергюсон / Stacy Ferguson, Міа Ферроу / Mia Farrow, Джиммі Феллон / Jimmy Fallon, Снуп Догг / Snoop Dogg, Вілл Ай Ем / Will.I.Am, Логан Міллер / Logan Miller та інші

Сюжет:
Артур в захваті, тому що цієї ночі закінчується десятий місячний цикл, і він, нарешті, зможе повернутися в країну мініпутів, щоб возз'єднатися з Селенією. У селі мініпути приготували в його честь розкішний банкет, а маленька принцеса вбралася в сукню з пелюсток троянд. Але батько Артура саме в цей довгоочікуваний день оголошує, що їх канікули у бабусі закінчуються. Вони вже збираються їхати, як раптом павук кладе в долоню Артуру малюнок, на якому написано слово SOS. Сумнівів немає - Селені загрожує небезпека!

Артур, не замислюючись, летить до неї на допомогу. Навіть якщо зіткнутися з військами Креба, нового тирана Семи Королівств, врятувати Бетамеша, битися з пацюками, жабами і волохатими павуками... Лише для того, щоб, потрапивши в село мініпутів, дізнатися, що вони зовсім не просили його про допомогу! Але хто ж міг приготувати таку винахідливу пастку нашому юному героєві?...


Рейтинг MPAA: PG - рекомендується присутність батьків
Вікова категорія: 12+

Тривалість: 01:33:46
Якість: 720p
Відео:
кодек:
розмір кадру: 1280 x 546
бітрейт: 6838 кбіт/с

Аудіо # 1:
мова: українська
переклад: багатоголосий закадровий
кодек: 5.1
бітрейт: 640 кбіт/с

Аудіо # 2:
мова: українська
переклад: професійний дубльований - AdiozProduction studio
кодек: 2.0
бітрейт: 384 кбіт/с
Інформація про озвучення
Переклад: Олег Пашин
Ролі дублювали: Фреді Гаймор/Артур — Олександр Погребняк, Дмитро Завадський, Анатолій Пашнін, Євген Пашин, Андрій Мостренко та інші.

Кінопрокатник в Україні: “Cinergia”
Аудіо # 3:
мова: англійська
переклад: оригінал
кодек: 5.1
бітрейт: 1509 кбіт/с

Субтитри #1:
мова: українська (переклад з російської)
тип: програмні (м'які)
формат: *.srt

Субтитри #2:
мова: англійська
тип: програмні (м'які)
формат: *.srt

Збережено оригінальні розділи, як на Blu-ray.
Info
Код:
General
Unique ID                   : 171583954364219225512329288944624090711 (0x8115DE18FA819AEDA638D50F7A683E57)
Complete name               : Arthur et la vengeance de Maltazard (2009) [2xUkr,Eng sub.Eng] 720p [Hurtom & HDClub].
Format                      :
Format version              : Version 4 / Version 2
File size                   : 6.13 GiB
Duration                    : 1h 33mn
Overall bit rate            : 9 357 Kbps
Movie name                  : Артур та помста Вурдалака / Arthur and the Revenge of Maltazard / Arthur et la vengeance de Maltazard (2009) 720p [Hurtom & HDClub]
Encoded date                : UTC 2014-12-22 23:41:19
Writing application         : mkvmerge v7.4.0 ('Circles') 64bit built on Dec 12 2014 12:19:56
Writing library             : libebml v1.3.0 + libmatroska v1.4.1
DURATION                    : 01:26:21.880000000
NUMBER_OF_FRAMES            : 1012
NUMBER_OF_BYTES             : 67137
_STATISTICS_WRITING_APP     : mkvmerge v7.4.0 ('Circles') 64bit built on Dec 12 2014 12:19:56
_STATISTICS_WRITING_DATE_UT : 2014-12-22 23:41:19
_STATISTICS_TAGS            : BPS DURATION NUMBER_OF_FRAMES NUMBER_OF_BYTES

Video
ID                          : 1
Format                      : AVC
Format/Info                 : Advanced Video Codec
Format profile              : High@L4.1
Format settings, CABAC      : Yes
Format settings, ReFrames   : 7 frames
Codec ID                    : V_MPEG4/ISO/AVC
Duration                    : 1h 33mn
Bit rate                    : 6 838 Kbps
Width                       : 1 280 pixels
Height                      : 546 pixels
Display aspect ratio        : 2.35:1
Frame rate mode             : Constant
Frame rate                  : 24.000 fps
Color space                 : YUV
Chroma subsampling          : 4:2:0
Bit depth                   : 8 bits
Scan type                   : Progressive
Bits/(Pixel*Frame)          : 0.408
Stream size                 : 4.35 GiB (71%)
Title                       : Артур та помста Вурдалака / Arthur and the Revenge of Maltazard / Arthur et la vengeance de Maltazard / Артур и месть Урдалака (2009) 720p [HDCLUB-Andrew Placid]
Writing library             : core 94 r1564kMod a927654
Encoding settings           : cabac=1 / ref=8 / deblock=1:-3:-3 / analyse=0x3:0x113 / me=umh / subme=10 / psy=1 / psy_rd=0.90:0.05 / mixed_ref=1 / me_range=32 / chroma_me=1 / trellis=2 / 8x8dct=1 / cqm=0 / deadzone=21,11 / fast_pskip=0 / chroma_qp_offset=-3 / threads=6 / sliced_threads=0 / nr=0 / decimate=0 / interlaced=0 / constrained_intra=0 / bframes=10 / b_pyramid=1 / b_adapt=2 / b_bias=0 / direct=3 / wpredb=1 / wpredp=2 / keyint=250 / keyint_min=25 / scenecut=40 / intra_refresh=0 / rc=2pass / mbtree=0 / bitrate=6838 / ratetol=1.0 / qcomp=0.60 / qpmin=10 / qpmax=51 / qpstep=4 / cplxblur=20.0 / qblur=0.5 / ip_ratio=1.40 / pb_ratio=1.30 / aq=1:0.70
Language                    : English
Default                     : No
Forced                      : No
DURATION                    : 01:33:46.042000000
NUMBER_OF_FRAMES            : 135025
NUMBER_OF_BYTES             : 4797678088
_STATISTICS_WRITING_APP     : mkvmerge v7.4.0 ('Circles') 64bit built on Dec 12 2014 12:19:56
_STATISTICS_WRITING_DATE_UT : 2014-12-22 23:41:19
_STATISTICS_TAGS            : BPS DURATION NUMBER_OF_FRAMES NUMBER_OF_BYTES

Audio #1
ID                          : 2
Format                      : AC-3
Format/Info                 : Audio Coding 3
Mode extension              : CM (complete main)
Format settings, Endianness : Big
Codec ID                    : A_AC3
Duration                    : 1h 33mn
Bit rate mode               : Constant
Bit rate                    : 640 Kbps
Channel(s)                  : 6 channels
Channel positions           : Front: L C R, Side: L R, LFE
Sampling rate               : 48.0 KHz
Bit depth                   : 16 bits
Compression mode            : Lossy
Delay relative to video     : 23ms
Stream size                 : 429 MiB (7%)
Title                       : MVO [1+1] 5.1 640 kbps [Hurtom-urij546724][-713ms]
Language                    : Ukrainian
Default                     : Yes
Forced                      : No

Audio #2
ID                          : 3
Format                      : AC-3
Format/Info                 : Audio Coding 3
Mode extension              : CM (complete main)
Format settings, Endianness : Big
Codec ID                    : A_AC3
Duration                    : 1h 33mn
Bit rate mode               : Constant
Bit rate                    : 384 Kbps
Channel(s)                  : 2 channels
Channel positions           : Front: L R
Sampling rate               : 48.0 KHz
Bit depth                   : 16 bits
Compression mode            : Lossy
Delay relative to video     : 17ms
Stream size                 : 258 MiB (4%)
Title                       : Dub [AdiozProduction studio, Line] 2.0 384 kbps [Hurtom-Skiff][-719ms]
Language                    : Ukrainian
Default                     : No
Forced                      : No

Audio #3
ID                          : 4
Format                      :
Format/Info                 : Digital Theater Systems
Mode                        : 16
Format settings, Endianness : Big
Codec ID                    : A_DTS
Duration                    : 1h 33mn
Bit rate mode               : Constant
Bit rate                    : 1 509 Kbps
Channel(s)                  : 6 channels
Channel positions           : Front: L C R, Side: L R, LFE
Sampling rate               : 48.0 KHz
Bit depth                   : 24 bits
Compression mode            : Lossy
Stream size                 : 1 012 MiB (16%)
Title                       : Original 5.1 1509 kbps
Language                    : English
Default                     : No
Forced                      : No

Text #1
ID                          : 5
Format                      : UTF-8
Codec ID                    : S_TEXT/UTF8
Codec ID/Info               : UTF-8 Plain Text
Title                       : Ukr [Hurtom-urij546724][-716ms]
Language                    : Ukrainian
Default                     : No
Forced                      : No

Text #2
ID                          : 6
Format                      : UTF-8
Codec ID                    : S_TEXT/UTF8
Codec ID/Info               : UTF-8 Plain Text
Title                       : Eng [-716]
Language                    : English
Default                     : No
Forced                      : No

Menu
00:00:00.000                : en:00:00:00.000
00:05:31.456                : en:00:05:31.456
00:07:23.360                : en:00:07:23.360
00:13:57.295                : en:00:13:57.295
00:20:31.689                : en:00:20:31.689
00:27:24.351                : en:00:27:24.351
00:30:54.061                : en:00:30:54.061
00:40:21.294                : en:00:40:21.294
00:45:12.543                : en:00:45:12.543
00:54:31.727                : en:00:54:31.727
01:01:02.200                : en:01:01:02.200
01:06:55.970                : en:01:06:55.970
01:12:05.613                : en:01:12:05.613
01:18:50.976                : en:01:18:50.976
01:22:09.925                : en:01:22:09.925
01:26:59.089                : en:01:26:59.089




Джерела та подяки: &
ріп відео, оригінальний звук - Andrew Placid (HDClub); українські доріжки: urij546724 (1), Skiff (2) - зведення, dvorsky, Skiff - запис з ТБ (1); українські субтитри: urij546724 - переклад з російської; українізований постер - офіційний

Артур і війна двох світів / Arthur 3: la guerre des deux mondes / Arthur 3: The War of the Two Worlds (2010) 720p Ukr/Eng | Sub Ukr/Eng

Артур і війна двох світів / Arthur 3: la guerre des deux mondes / Arthur 3: The War of the Two Worlds (2010) 720p Ukr/Eng | Sub Ukr/Eng



Жанр: анімація, фентезі, пригодницький, сімейний
Країна: Франція



Кінокомпанія: Europa Corp., Avalanche Productions, Apipoulaï
Режисер: Люк Бесон / Luc Besson
Актори: Мілен Фармер / Mylène Farmer, Міа Ферроу / Mia Farrow, Джиммі Феллон / Jimmy Fallon, Іґґі Поп / Iggy Pop, Роберт Стентон / Robert Stanton, Лу Рід / Lou Reed, Жерар Дармон / Gérard Darmon, Жан-Поль Рув / Jean-Paul Rouve, Пенні Балфур / Penny Balfour, Фредеріка Бель / Frédérique Bel, Рон Кроуфорд / Ron Crawford, Мішель Дюшоссуа / Michel Duchaussoy, Марк Лавуан / Marc Lavoine, Фредеріка Тірмонт / Frédérique Tirmont та інші

Сюжет:
Які диявольські плани збирається здійснити Вурдалак, щоб завоювати новий світ, у який він підступно перемістився? Як Артур, що залишився у світі мініпутів, зможе перемогти жорстокого Жахливого У? Щоб зберегти кохання прекрасної принцеси Селенії, Артур готовий вступити в бій проти Вурдалака як у світі мініпутів, так і у реальному світі... Допомогти Артуру може тільки дідове зілля, але єдина його сулійка потрапила в лапи ворогів...


Рейтинг MPAA: PG - рекомендується присутність батьків
Вікова категорія: 12+

Тривалість: 01:41:09
Якість: 720p
Відео:
кодек:
розмір кадру: 1280 x 546
бітрейт: 8000 кбіт/с

Аудіо # 1:
мова: українська
переклад: професійний дубльований
кодек: 2.0
бітрейт: 192 кбіт/с

Аудіо # 2:
мова: англійська
переклад: оригінал
кодек: 5.1
бітрейт: 1509 кбіт/с

Субтитри #1:
мова: українська (переклад з оригіналу)
тип: програмні (м'які)
формат: *.srt

Субтитри #2:
мова: англійська
тип: програмні (м'які)
формат: *.srt

Збережено оригінальні розділи, як на Blu-ray.
Info
Код:
General
Unique ID                   : 228907989305902809947503869657387422550 (0xAC36133A7FB29839AFC94A265238D356)
Complete name               : Arthur 3 la guerre des deux mondes (2010) [Ukr,Eng sub.Ukr,Eng] 720p [Hurtom & 0day].
Format                      :
Format version              : Version 4 / Version 2
File size                   : 6.85 GiB
Duration                    : 1h 41mn
Overall bit rate            : 9 698 Kbps
Movie name                  : Артур і війна двох світів / Arthur 3: la guerre des deux mondes / Arthur 3: The War of the Two Worlds (2010) 720p [Hurtom & 0day]
Encoded date                : UTC 2014-12-23 10:39:20
Writing application         : mkvmerge v7.4.0 ('Circles') 64bit built on Dec 12 2014 12:19:56
Writing library             : libebml v1.3.0 + libmatroska v1.4.1
DURATION                    : 01:41:08.128000000
NUMBER_OF_FRAMES            : 189629
NUMBER_OF_BYTES             : 145635072
_STATISTICS_WRITING_APP     : mkvmerge v7.4.0 ('Circles') 64bit built on Dec 12 2014 12:19:56
_STATISTICS_WRITING_DATE_UT : 2014-12-23 10:39:20
_STATISTICS_TAGS            : BPS DURATION NUMBER_OF_FRAMES NUMBER_OF_BYTES

Video
ID                          : 1
Format                      : AVC
Format/Info                 : Advanced Video Codec
Format profile              : High@L4.1
Format settings, CABAC      : Yes
Format settings, ReFrames   : 11 frames
Codec ID                    : V_MPEG4/ISO/AVC
Duration                    : 1h 41mn
Bit rate                    : 8 000 Kbps
Width                       : 1 280 pixels
Height                      : 546 pixels
Display aspect ratio        : 2.35:1
Frame rate mode             : Constant
Frame rate                  : 23.976 fps
Color space                 : YUV
Chroma subsampling          : 4:2:0
Bit depth                   : 8 bits
Scan type                   : Progressive
Bits/(Pixel*Frame)          : 0.477
Stream size                 : 5.51 GiB (80%)
Title                       : Артур і війна двох світів / Arthur 3: la guerre des deux mondes / Arthur 3: The War of the Two Worlds / Артур и война двух миров (2010) 720p [HDv0T-Ramazan]
Writing library             : core 129 r2230kMod 1cffe9f
Encoding settings           : cabac=1 / ref=11 / deblock=1:-3:-3 / analyse=0x3:0x113 / me=umh / subme=11 / psy=1 / fade_compensate=0.00 / psy_rd=0.90:0.00 / mixed_ref=1 / me_range=16 / chroma_me=1 / trellis=2 / 8x8dct=1 / cqm=0 / deadzone=21,11 / fast_pskip=0 / chroma_qp_offset=-2 / threads=12 / lookahead_threads=2 / sliced_threads=0 / nr=0 / decimate=0 / interlaced=0 / bluray_compat=0 / constrained_intra=0 / bframes=8 / b_pyramid=2 / b_adapt=2 / b_bias=0 / direct=3 / weightb=1 / open_gop=0 / weightp=2 / keyint=250 / keyint_min=23 / scenecut=40 / intra_refresh=0 / rc=2pass / mbtree=0 / bitrate=8000 / ratetol=1.0 / qcomp=0.80 / qpmin=0 / qpmax=69 / qpstep=4 / cplxblur=20.0 / qblur=0.5 / ip_ratio=1.40 / pb_ratio=1.30 / aq=1:0.80 / zones=124701,135517,b=0.3
Language                    : English
Default                     : Yes
Forced                      : No
DURATION                    : 01:41:09.272000000
NUMBER_OF_FRAMES            : 145517
NUMBER_OF_BYTES             : 6065175920
_STATISTICS_WRITING_APP     : mkvmerge v7.4.0 ('Circles') 64bit built on Dec 12 2014 12:19:56
_STATISTICS_WRITING_DATE_UT : 2014-12-23 10:39:20
_STATISTICS_TAGS            : BPS DURATION NUMBER_OF_FRAMES NUMBER_OF_BYTES

Audio #1
ID                          : 2
Format                      : AC-3
Format/Info                 : Audio Coding 3
Mode extension              : CM (complete main)
Format settings, Endianness : Big
Codec ID                    : A_AC3
Duration                    : 1h 41mn
Bit rate mode               : Constant
Bit rate                    : 192 Kbps
Channel(s)                  : 2 channels
Channel positions           : Front: L R
Sampling rate               : 48.0 KHz
Bit depth                   : 16 bits
Compression mode            : Lossy
Stream size                 : 139 MiB (2%)
Title                       : Dub [Tet] 2.0 192 kbps [Hurtom-taraskill1,aaa4523]
Language                    : Ukrainian
Default                     : Yes
Forced                      : No

Audio #2
ID                          : 3
Format                      :
Format/Info                 : Digital Theater Systems
Mode                        : 16
Format settings, Endianness : Big
Codec ID                    : A_DTS
Duration                    : 1h 41mn
Bit rate mode               : Constant
Bit rate                    : 1 509 Kbps
Channel(s)                  : 6 channels
Channel positions           : Front: L C R, Side: L R, LFE
Sampling rate               : 48.0 KHz
Bit depth                   : 24 bits
Compression mode            : Lossy
Stream size                 : 1.07 GiB (16%)
Title                       : Original 5.1 1509 kbps
Language                    : English
Default                     : No
Forced                      : No

Text #1
ID                          : 4
Format                      : UTF-8
Codec ID                    : S_TEXT/UTF8
Codec ID/Info               : UTF-8 Plain Text
Language                    : Ukrainian
Default                     : No
Forced                      : No

Text #2
ID                          : 5
Format                      : UTF-8
Codec ID                    : S_TEXT/UTF8
Codec ID/Info               : UTF-8 Plain Text
Language                    : English
Default                     : No
Forced                      : No

Menu
00:00:00.000                : en:00:00:00.000
00:04:45.577                : en:00:04:45.577
00:14:47.303                : en:00:14:47.303
00:17:16.994                : en:00:17:16.994
00:23:27.823                : en:00:23:27.823
00:29:56.545                : en:00:29:56.545
00:35:31.463                : en:00:35:31.463
00:45:16.964                : en:00:45:16.964
00:50:12.676                : en:00:50:12.676
00:57:52.302                : en:00:57:52.302
01:03:02.237                : en:01:03:02.237
01:07:47.855                : en:01:07:47.855
01:14:03.397                : en:01:14:03.397
01:20:15.019                : en:01:20:15.019
01:28:06.865                : en:01:28:06.865
01:32:54.986                : en:01:32:54.986




Джерела та подяки: &
ріп відео, оригінальний звук - Ramazan (0day); українська доріжка: taraskill1 - зведення, aaa4523 - запис з ТБ; українські субтитри та постер: Antrakos

ЗАЛИШАЙТЕСЬ ЯКОМОГА ДОВШЕ НА РОЗДАЧІ!

СКАЧАВ САМ - ДАЙ СКАЧАТИ ІНШИМ


Бронзовий реліз (на рейтинг впливає 75% завантаженого)
 Трекер:    Зареєстрований   

Завантажити / скачати мультфільм українською



відео для новачків



 Зареєстрований:   2014-12-23 22:53
 Розмір:   17.68 GB 
 Оцінка мультфільму:   6/10 (Голосів: 25)
   
Ваш часовий пояс: GMT + 2 Години

Нова тема   Відповісти