Земля: Сила планети / Earth: The Power of the Planet (2007) 720p Ukr/Eng

Нові коментарі

Нова тема   Відповісти
Автор Повідомлення
AngryBirdsUA 
Свій


З нами з: 24.02.10
Востаннє: 22.10.17
Повідомлень: 3037

2014-12-21 13:25  
Земля: Сила планети / Earth: The Power of the Planet (2007) 720p Ukr/Eng

Земля: Сила планети / Earth: The Power of the Planet (2007) 720p Ukr/Eng


Жанр: документальний
Країна: Велика Британія



Кінокомпанія: British Broadcasting Corporation (BBC), National Geographic Channel, Zweites Deutsches Fernsehen (ZDF)
Режисер: Анабель Джілінгс, Софі Харріс та інші
Актори: Йен Стюарт, Брюс Маунтін, Кеті Волтер, Віктор Бейкер, Міріам Джексон, Конрад Стеффен, Філ Бленд

Сюжет:
Перед вами неймовірна історія планети Земля - єдиної живої планети у всесвіті. Як же влаштована наша планета? Як вона працює, і що робить її такою особливою? Досліджуючи великі сили, які формують Землю - вулкани, океан, атмосферу і лід - ми зможемо дізнатися про їх роль в історії нашої планети. Як ці сили впливають на вигляд Землі, її клімат, і її історію? Це серіал надає нам дивну можливість дізнатися про наш дім якомога більше.


Перелік серій:
1. Вулкани / Volcano
2. Атмосфера / Atmosphere
3. Крига / Ice
4. Океани / Oceans
5. Унікальна планета / Rare Earth

Тривалість: 1 серія: 50:00 (цілком серій: 5)
Якість:
Відео:
кодек:
розмір кадру: 1280 х 720
бітрейт: ~4900 кб/с

Аудіо # 1:
мова: українська
переклад: одноголосий закадровий
кодек: 2.0
бітрейт: 160 кб/с

Аудіо # 2:
мова: англійська
переклад: оригінал
кодек: 2.0
бітрейт: 224 кб/с

Джерело озвучення:
Info
General
Unique ID : 196148611896668808233167015438307055104 (0x9390D9389E5098A89085EF0CDF505600)
Complete name : F:\Earth The Power of the Planet (2007) 720p [Ukr.Eng] [Hurtom]\E01 - Volcano (2007) 720p [Ukr.Eng] [Hurtom].
Format :
Format version : Version 4 / Version 2
File size : 1.93 GiB
Duration : 52mn 28s
Overall bit rate : 5 262 Kbps
Movie name : zackary
Encoded date : UTC 2014-12-21 09:37:14
Writing application : mkvmerge v6.1.0 ('Old Devil') built on Mar 4 2013 09:10:42
Writing library : libebml v1.3.0 + libmatroska v1.4.0

Video
ID : 1
Format : AVC
Format/Info : Advanced Video Codec
Format profile : [email protected]
Format settings, CABAC : Yes
Format settings, ReFrames : 8 frames
Codec ID : V_MPEG4/ISO/AVC
Duration : 52mn 28s
Bit rate : 4 877 Kbps
Width : 1 280 pixels
Height : 720 pixels
Display aspect ratio : 16:9
Frame rate mode : Constant
Frame rate : 29.970 fps
Color space : YUV
Chroma subsampling : 4:2:0
Bit depth : 8 bits
Scan type : Progressive
Bits/(Pixel*Frame) : 0.177
Stream size : 1.75 GiB (91%)
Title : Valcano.2008.BluRay.720p.-WiKi
Writing library : core 67 r1137M 1fda882
Encoding settings : cabac=1 / ref=8 / deblock=1:-2:-1 / analyse=0x3:0x113 / me=umh / subme=7 / psy_rd=1.0:0.0 / mixed_ref=0 / me_range=16 / chroma_me=1 / trellis=1 / 8x8dct=1 / cqm=0 / deadzone=21,11 / chroma_qp_offset=-2 / threads=12 / nr=0 / decimate=1 / mbaff=0 / bframes=16 / b_pyramid=1 / b_adapt=1 / b_bias=0 / direct=3 / wpredb=1 / keyint=250 / keyint_min=25 / scenecut=40 / rc=2pass / bitrate=4877 / ratetol=1.0 / qcomp=0.60 / qpmin=10 / qpmax=51 / qpstep=4 / cplxblur=20.0 / qblur=0.5 / ip_ratio=1.40 / pb_ratio=1.30 / aq=1:1.00
Language : English
Default : Yes
Forced : No

Audio #1
ID : 2
Format : AC-3
Format/Info : Audio Coding 3
Mode extension : CM (complete main)
Format settings, Endianness : Big
Codec ID : A_AC3
Duration : 52mn 28s
Bit rate mode : Constant
Bit rate : 160 Kbps
Channel(s) : 2 channels
Channel positions : Front: L R
Sampling rate : 48.0 KHz
Bit depth : 16 bits
Compression mode : Lossy
Stream size : 60.1 MiB (3%)
Language : Ukrainian
Default : Yes
Forced : No

Audio #2
ID : 3
Format : AC-3
Format/Info : Audio Coding 3
Mode extension : CM (complete main)
Format settings, Endianness : Big
Codec ID : A_AC3
Duration : 52mn 28s
Bit rate mode : Constant
Bit rate : 224 Kbps
Channel(s) : 2 channels
Channel positions : Front: L R
Sampling rate : 48.0 KHz
Bit depth : 16 bits
Compression mode : Lossy
Stream size : 84.1 MiB (4%)
Language : English
Default : No
Forced : No


За надані записи подяка - zevsisver
За укр.постер подяка - Gelios
За зведення подяка - Romario_O

Джерело:


Бронзовий реліз (на рейтинг впливає 75% завантаженого)
 Трекер:    Зареєстрований   

Завантажити / скачати фільм українською



відео для новачків



 Зареєстрований:   2014-12-21 13:25
 Розмір:   9.56 GB 
 Оцінка фільму:   8.4/10 (Голосів: 17)
   
cyberprostir 
Свій


З нами з: 15.11.09
Востаннє: 22.10.17
Повідомлень: 109

2014-12-21 22:54  
Дякую за чудову новинку! Передивилися вже майже все про природу в НD. Шкода, що не так багато озвучується документальних фільмів про природу, як хотілося б. Невеличка помилка в постері в "природні сили"
AngryBirdsUA 
Свій


З нами з: 24.02.10
Востаннє: 22.10.17
Повідомлень: 3037

2014-12-21 22:58  
cyberprostir
У мене ще заплановано декілька оновлень релізів до hd та декілька новинок.

cyberprostir 
Свій


З нами з: 15.11.09
Востаннє: 22.10.17
Повідомлень: 109

2014-12-21 23:34  
Vasua95
Добре, чекатиму! Гуртомівське HD про природу ніколи не видаляю, залишаюсь на роздачі.

AngryBirdsUA 
Свій


З нами з: 24.02.10
Востаннє: 22.10.17
Повідомлень: 3037

2014-12-22 11:36  
ріпи немає сенсу робити бо ріпи з двд якісні.
Ваш часовий пояс: GMT + 2 Години

Нова тема   Відповісти