Танок на майдані Конґо (ТНМК) - Дзеркало (2014) [] | Hip-Hop/Rap

Нові коментарі

Нова тема   Відповісти
Останній раз роздавалося Beshg (2019-07-24)
Автор Повідомлення
Anonymous 







2014-12-13 12:43  
Танок на майдані Конґо (ТНМК) - Дзеркало (2014) [] | Hip-Hop/Rap



Стиль: Hip-Hop/Rap
Країна, місто: Україна, Київ
Сайти: Офіційний сайт
Видавець: Golden Music.ua
Виконавці:
    Танок на майдані Конґо

    Антон "Tonique" Батурин - Dj
    Віктор "Вітольд" Корженко - барабани
    Костянтин "Котя" Жуйков - бас
    Олег "Фагот" Михайлюта - вокал
    Олександр "Фоззі" Сидоренко - вокал
    Олександр Шиманський - клавіші
    Ярослав "Ярік" Верьовкін - гітара
    Feat

    Андрій Середа - скіт (03)
    Анна Заклецька - скіт (17)
    Ансамбль "Зернятко" (06)
    Вахтанг Костянтинович Кікабідзе - скіт (15)
    Cezar Gomez Chacon - скіт (11)
    Григорій Герман - скіт (25, 27)
    Гриць - ситара (08)
    Ігор "Гоша" Арнаутов - скіт (23+)
    Мгзавребі (16)
    Наталія Гордієнко - вокал (14)
    Олексій "Льопа Тарасич" Саранчин - фортепіано (10+)
    Оркестр Слобожанський (08)
    Петро Юхимович Вескляр aka дід Панас - скіт (05, 07)
    Правдивий хор "Mental Drive" (02)
    Руслана Хазіпова - вокал (18), скіти (01, 09)
    Сергій Притула - скіт (13)
    Юрій Горбунов - скіт (01, 09)
    Юрій Яковенко - губна гармоніка, аранжування та оркестрування (08)
    Ярослав Джусь - бандура (06)

Пісні:
    01 Welcome 2 Congo Square (скіт by Юрій Горбунов) 0:35
    02 Дзеркало 3:52
    03 Многая літа (скіт by Андрій Середа) 0:44
    04 В наступному 5:03
    05 Я починаю (скіт by дід Панас) 0:39
    06 Гупало Василь 3:36
    07 Сни (скіт by дід Панас) 0:17
    08 Там, де ти тепер 4:52
    09 Репертуар (скіт by Юрій Горбунов) 0:34
    10 Фідель 3:24
    11 Цезар (скіт by Cesar) 0:09
    12 Своя ріка 4:22
    13 14.06.14. (скіт by Сергій Притула) 0:45
    14 Файне місто Тернопіль 3:49
    15 Не получится (скіт by Вахтанг Кікабідзе) 0:40
    16 Qari Qris feat Mgzavrebi 3:40
    17 GPS (скіт by Анна Заклецька) 0:23
    18 Тестостерон 4:19
    19 Дискусія (скіт з фільму «Убить Дракона») 0:26
    20 Українська мрія 3:29
    21 Ми (скіт з фільму «Убить Дракона») 0:24
    22 Небокрай 4:50
    23 Відлуння (скіт by Ігор «Гоша» Арнаутов) 0:35
    24 Хоча я є 3:52
    25 Насамкінець (скіт by Григорій Герман) 1:23
    26 Війна Світів 4:28
    27 Урок (скіт by Григорій Герман) 5:08

Тривалість: 01:06:30
Мова: українська (1-10, 12-14, 16-18, 20, 22-27), іспанська (11), російська (11, 15, 19, 21), грузинська (16)
Аудіо-кодек:
Бітрейт: 924 кб/с
Джерело: Власний диск
Додаткова інформація:
Шостий номерний альбом гурту, що вийшов 29 листопада 2014 року.

"ТНМК прорвало, вони піднесли дзеркало до нашого обличчя максимально близько, і відвертатися вже безглуздо. Доведеться слухати і вникати в те, що вони хіп-хоплять у своїх багатослівних піснях. Якщо, звичайно, нам є діло до самих себе. Вдивлятися доведеться довго і, швидше за все, болісно. Але сенс у цієї процедурі неодмінно буде. Бо ще ніколи не було так, щоб якось не було".
Ігор Панасов, "Cultprostir"

"Неймовірний альбом – а втім, ТНМК якось уміють додавати обертів навіть по 17 роках спільної історії (скажіть іще, що в 17 років всі – круті, ага..). Попередній альбом "С.П.А.М." здавався вершиною – але ні, виявляється, можна ще глибше, потужніше, яскравіше. Український 2014 рік когось "заморозив", когось обернув на мляву кашу, але з "Танками" сталося, як у тім вірші Шевченка "Ой виострю товариша"... Гострі, допитливі, саркастичні тексти Фоззі не дають розуму шансів на сон (що породжує, як відомо, чудовиськ) – а музика просто як стій дає поживу всім решті сенсорів. Саме так – музика така насичена, що, здається, відчуваєш її і на дотик, і на запах, колір, смак. Альбом настільки багатий нюансами, що нема сенсу їх розписувати, і одного прослуховування тут точно не вистачить – можна ставити на цикл і постійно знаходити в ньому щось нове, цікаве (навіть не беремо до уваги очевидні прикраси – традиційні скіти між піснями). "Дзеркало" вже розтягують на цитати – і правильно, давно маємо пророків у власному домі ) ТНМК, думаю – теж із цієї непростої компанії. За такі альбоми просто хочеться – і варто – говорити: дякую..."
Антон Йожик Лейба
.log
Exact Audio Copy V1.0 beta 3 from 29. August 2011

EAC extraction logfile from 13. December 2014, 11:36

ТНМК / Дзеркало

Used drive : TSSTcorpCDDVDW SH-222AB Adapter: 0 ID: 3

Read mode : Secure
Utilize accurate stream : Yes
Defeat audio cache : Yes
Make use of C2 pointers : No

Read offset correction : 6
Overread into Lead-In and Lead-Out : No
Fill up missing offset samples with silence : Yes
Delete leading and trailing silent blocks : No
Null samples used in CRC calculations : Yes
Used interface : Native Win32 interface for Win NT & 2000

Used output format : User Defined Encoder
Selected bitrate : 1024 kBit/s
Quality : High
Add ID3 tag : No
Command line compressor : C:\Program Files (x86)\Exact Audio Copy\\.exe
Additional command line options : -8 -V %source%

TOC of the extracted CD

Track | Start | Length | Start sector | End sector
---------------------------------------------------------
1 | 0:00.00 | 0:35.08 | 0 | 2632
2 | 0:35.08 | 3:52.57 | 2633 | 20089
3 | 4:27.65 | 0:44.00 | 20090 | 23389
4 | 5:11.65 | 5:03.58 | 23390 | 46172
5 | 10:15.48 | 0:39.35 | 46173 | 49132
6 | 10:55.08 | 3:36.44 | 49133 | 65376
7 | 14:31.52 | 0:17.37 | 65377 | 66688
8 | 14:49.14 | 4:52.66 | 66689 | 88654
9 | 19:42.05 | 0:34.33 | 88655 | 91237
10 | 20:16.38 | 3:24.31 | 91238 | 106568
11 | 23:40.69 | 0:09.18 | 106569 | 107261
12 | 23:50.12 | 4:22.19 | 107262 | 126930
13 | 28:12.31 | 0:45.42 | 126931 | 130347
14 | 28:57.73 | 3:49.09 | 130348 | 147531
15 | 32:47.07 | 0:40.23 | 147532 | 150554
16 | 33:27.30 | 3:40.52 | 150555 | 167106
17 | 37:08.07 | 0:23.31 | 167107 | 168862
18 | 37:31.38 | 4:19.26 | 168863 | 188313
19 | 41:50.64 | 0:26.73 | 188314 | 190336
20 | 42:17.62 | 3:29.30 | 190337 | 206041
21 | 45:47.17 | 0:24.22 | 206042 | 207863
22 | 46:11.39 | 4:50.32 | 207864 | 229645
23 | 51:01.71 | 0:35.49 | 229646 | 232319
24 | 51:37.45 | 3:52.45 | 232320 | 249764
25 | 55:30.15 | 1:23.55 | 249765 | 256044
26 | 56:53.70 | 4:28.23 | 256045 | 276167
27 | 61:22.18 | 5:08.17 | 276168 | 299284

Range status and errors

Selected range

Filename M:\Музика\\ТНМК - Дзеркало.wav

Peak level 99.9 %
Extraction speed 3.3 X
Range quality 100.0 %
Test CRC 1F6DE724
Copy CRC 1F6DE724
Copy OK

No errors occurred

End of status report
Якщо Ви справді бажаєте підтримати українське - після прослуховування, якщо музика вам сподобалась, придбайте ліцензійний диск. Підтримаймо вітчизняних виконавців!


Придбати альбом можна:
iTunes
Google Play
CD диск (digi-pack)


Срібний реліз (на рейтинг впливає 50% завантаженого)
 Трекер:    Зареєстрований   

Завантажити / скачати українську музику



відео для новачків



 Зареєстрований:   2014-12-13 12:43
 Розмір:   441 MB 
 Оцінка музики:   9.6/10 (Голосів: 30)
   
mr.killer 
Поважний учасник


З нами з: 11.08.10
Востаннє: 24.07.19
Повідомлень: 231

2018-10-20 10:19  
дуже крутезний альбом, ТНМК в черговий раз порадували, якісно і незвично... дякую автору ріпу
portsmuth 
Частий відвідувач


З нами з: 10.06.14
Востаннє: 23.07.19
Повідомлень: 26

2019-04-16 18:30  
Шкода, що ТНМК так рідко випускають альбоми, зате стабільно круто. Спочатку завантажив на толоці, а згодом придбав ліцензійний диск. Дуже сподобався!
Ваш часовий пояс: GMT + 2 Години

Нова тема   Відповісти