Світанок планети мавп / Dawn of the Planet of the Apes (2014) 360p

Нові коментарі

Нова тема   Відповісти
Останній раз роздавалося coltojkee (2021-01-10)
Автор Повідомлення
DmitryA 
Новенький


З нами з: 15.08.12
Востаннє: 05.01.21
Повідомлень: 23

2014-12-10 16:18  
Світанок планети мавп / Dawn of the Planet of the Apes (2014) 360p

Світанок планети мавп / Dawn of the Planet of the Apes (2014) 360p


Жанр: драма, фантастика, бойовик
Країна: США



Кінокомпанія: Chernin Entertainment, Ingenious Media, TSG Entertainment
Режисер: Метт Рівз
Актори: Енді Серкіс, Джейсон Кларк, Ґері Олдмен, Кері Расселл, Тобі Кеббелл, Коді, Сміт-МакФі, Кірк Асеведо, Нік Терстон, Террі Нотар, Карін Коновал

Сюжет:
Чисельність генетично модифікованих мавп, очолюваних Цезарем, продовжує збільшуватися, але мавпам погрожують люди, яким вдалося вижити під час жахливої ​​епідемії десятирічної давності. Спочатку між суперниками встановлюється крихкий мир, але він виявляється недовговічним. Мавпи і люди знаходяться на межі війни, в ході якої стане зрозуміло, хто з них в майбутньому стане безроздільно правити планетою.


Тривалість: 02:10:24
Якість:
Відео:
кодек: MPEG-4 SP
розмір кадру: 640 x 346
бітрейт: 1100 кб/с

Аудіо:
мова: українська
переклад: професійний дубльований
кодек: 2.0
бітрейт: 128 кб/с
Скріншоти




Звіт Info
General
Complete name : Dawn.of.the.Planet.of.the.Apes.2014..360p.[Hurtom].m4v
Format : MPEG-4
Codec ID : M4V
File size : 1.12 GiB
Duration : 2h 10mn
Overall bit rate mode : Variable
Overall bit rate : 1 234 Kbps
Encoded date : UTC 2014-11-20 05:26:00
Tagged date : UTC 2014-11-20 05:26:00

Video
ID : 1
Format : MPEG-4 Visual
Format profile : [email protected]
Format settings, BVOP : No
Format settings, QPel : No
Format settings, GMC : No warppoints
Format settings, Matrix : Default (H.263)
Codec ID : 20
Duration : 2h 10mn
Bit rate mode : Variable
Bit rate : 1 103 Kbps
Maximum bit rate : 6 726 Kbps
Width : 640 pixels
Height : 346 pixels
Display aspect ratio : 1.85:1
Frame rate mode : Constant
Frame rate : 23.976 fps
Color space : YUV
Chroma subsampling : 4:2:0
Bit depth : 8 bits
Scan type : Progressive
Compression mode : Lossy
Bits/(Pixel*Frame) : 0.208
Stream size : 1.01 GiB (89%)
Writing library : 1.2.1 (UTC 2008-12-04)
Encoded date : UTC 2014-11-20 05:26:00
Tagged date : UTC 2014-11-20 05:26:06

Audio
ID : 2
Format :
Format/Info : Advanced Audio Codec
Format profile : LC
Codec ID : 40
Duration : 2h 10mn
Bit rate mode : Variable
Bit rate : 128 Kbps
Maximum bit rate : 134 Kbps
Channel(s) : 2 channels
Channel positions : Front: L R
Sampling rate : 48.0 KHz
Compression mode : Lossy
Stream size : 119 MiB (10%)
Encoded date : UTC 2014-11-20 05:26:03
Tagged date : UTC 2014-11-20 05:26:06
Джерело:
Особиста оцінка: 10 - без зайвих вагань рекомендую всім!


 Трекер:    Зареєстрований   

Завантажити / скачати торрент



відео для новачків



 Зареєстрований:   2014-12-10 16:18
 Розмір:   1.12 GB 
 Оцінка:   9.3/10 (Голосів: 4)
   
Інші релізи
   Світанок планети мавп / Dawn of the Planet of the Apes (2014) 1080p H.265 Ukr/Eng | Sub Ukr/Eng -Star-Lord-  12 / 0   6.91 GB   2019-03-11 00:17 
   Світанок планети мавп / Dawn of the Planet of the Apes (2014) Remux 1080p Ukr/Eng | Sub Ukr/Eng Argentum  3 / 0   21.99 GB   2017-11-07 16:21 
   Світанок планети мавп / Dawn of the Planet of the Apes (2014) 1080p 3D [Half OverUnder] Ukr/Eng | Sub Eng 3d_reliz  2 / 0   14.05 GB   2014-12-07 18:47 
   Світанок планети мавп / Dawn of the Planet of the Apes (2014) AVC Ukr/Eng | Sub Ukr/Eng omm  3 / 0   2.41 GB   2014-11-15 16:34 
   Світанок планети мавп / Dawn of the Planet of the Apes (2014) 720p-mini Drool  2 / 0   3.37 GB   2014-11-13 14:52 
   Світанок планети мавп / Dawn of the Planet of the Apes (2014) 1080p Ukr/Eng | Sub Ukr/Eng 11FrYkT  2 / 0   11.29 GB   2014-11-12 07:22 
   Світанок планети мавп / Dawn of the Planet of the Apes (2014) 720p Ukr/Eng | Sub Ukr/Eng 11FrYkT  2 / 0   5.44 GB   2014-11-11 19:37 
   Світанок планети мавп / Dawn of the Planet of the Apes (2014) Blu-ray CEE 1080p Ukr/Eng/Multi | Sub Ukr/Eng/Multi smak2001  0 / 0   43.96 GB   2014-11-11 18:47 
   Світанок планети мавп / Dawn of the Planet of the Apes (2014) patriot2305  6 / 0   1.45 GB   2014-11-11 17:51 
   Світанок планети мавп / Dawn of the Planet of the Apes (2014) Ukr/Eng AngryBirdsUA  2 / 0   2.18 GB   2014-11-11 14:34 
bot 
робот


З нами з: 30.09.07
Востаннє: 26.05.05
Повідомлень: 26966

2014-12-10 16:18  
Тему перенесено з Фільми до форуму Відео для мобільних (iOS, Android, Windows Phone)


DmitryA

Ваш часовий пояс: GMT + 2 Години

Нова тема   Відповісти