Повстання планети мавп / Rise of the Planet of the Apes (2011) 360p

Нові коментарі

Нова тема   Відповісти
Останній раз роздавалося DmitryA (2020-09-30)
Автор Повідомлення
DmitryA 
Новенький


З нами з: 15.08.12
Востаннє: 05.01.21
Повідомлень: 23

2014-12-10 16:08  
Повстання планети мавп / Rise of the Planet of the Apes (2011) 360p

Повстання планети мавп / Rise of the Planet of the Apes (2011) 360p


Жанр: драма, бойовик, наукова фантастика
Країна: США



Кінокомпанія: Twentieth Century Fox Film Corporation, Chernin Entertainment, Dune Entertainment
Режисер: Руперт Віат
Актори: Джеймс Франко, Фрейда Пінто, Джон Літгов, Браян Кокс, Том Фелтон, Джеймі Гарріс, Ті Олсон, Тайлер Лебайн

Сюжет:
Історія, що вже стала класикою наукової фантастики, перенесена в сучасний Сан-Франциско, де молодий вчений Віл Родман працює над ліками проти хвороби Альцгеймера. У винайденої речовини виявляється цікавий побічний ефект - у мавп, на яких Родман тестував зразки нових препаратів, починає прогресувати інтелект, швидко наздоганяючи людей в рівні розумового розвитку. Головна жертва експериментів, шимпанзе Цезар, виривається на свободу і випускає речовину-покращувач, "розвиваючи" своїх братів-мавп та збираючи з них армію для знищення людей.


Тривалість: 01:44:56
Якість:
Відео:
кодек: MPEG-4 SP
розмір кадру: 640 x 272
бітрейт: 1100 кб/с

Аудіо:
мова: українська
переклад: професійний дубльований
кодек: 2.0
бітрейт: 128 кб/с
Скріншоти




Звіт Info
General
Complete name : Rise.of.the.Planet.of.the.Apes.2011..360p.[Hurtom].m4v
Format : MPEG-4
Codec ID : M4V
File size : 923 MiB
Duration : 1h 44mn
Overall bit rate mode : Variable
Overall bit rate : 1 230 Kbps
Encoded date : UTC 2014-11-27 16:41:31
Tagged date : UTC 2014-11-27 16:41:31

Video
ID : 1
Format : MPEG-4 Visual
Format profile : [email protected]
Format settings, BVOP : No
Format settings, QPel : No
Format settings, GMC : No warppoints
Format settings, Matrix : Default (H.263)
Codec ID : 20
Duration : 1h 44mn
Bit rate mode : Variable
Bit rate : 1 099 Kbps
Maximum bit rate : 7 028 Kbps
Width : 640 pixels
Height : 272 pixels
Display aspect ratio : 2.35:1
Frame rate mode : Constant
Frame rate : 23.976 fps
Color space : YUV
Chroma subsampling : 4:2:0
Bit depth : 8 bits
Scan type : Progressive
Compression mode : Lossy
Bits/(Pixel*Frame) : 0.263
Stream size : 825 MiB (89%)
Writing library : 1.2.1 (UTC 2008-12-04)
Encoded date : UTC 2014-11-27 16:41:31
Tagged date : UTC 2014-11-27 16:41:35

Audio
ID : 2
Format :
Format/Info : Advanced Audio Codec
Format profile : LC
Codec ID : 40
Duration : 1h 44mn
Bit rate mode : Variable
Bit rate : 128 Kbps
Maximum bit rate : 137 Kbps
Channel(s) : 2 channels
Channel positions : Front: L R
Sampling rate : 48.0 KHz
Compression mode : Lossy
Stream size : 96.1 MiB (10%)
Encoded date : UTC 2014-11-27 16:41:33
Tagged date : UTC 2014-11-27 16:41:35
Джерело:
Особиста оцінка: 10 - без зайвих вагань рекомендую всім!


 Трекер:    Зареєстрований   

Завантажити / скачати торрент



відео для новачків



 Зареєстрований:   2014-12-10 16:08
 Розмір:   923 MB 
 Оцінка:   8.5/10 (Голосів: 2)
   
bot 
робот


З нами з: 30.09.07
Востаннє: 26.05.05
Повідомлень: 26925

2014-12-10 16:09  
Тему перенесено з Фільми до форуму Відео для мобільних (iOS, Android, Windows Phone)


DmitryA

MrRyanCooper 
VIP


З нами з: 23.08.12
Востаннє: 17.01.21
Повідомлень: 518

2015-08-18 21:03  
Не можу прохавати, чому ПЛАНЕТИ мавп, а не просто МАВП, тут же планета людей показується, а не мавп'яча, як, наприклад ТУТ.
Ваш часовий пояс: GMT + 2 Години

Нова тема   Відповісти