Діви Розена: Сни (сезон 2, серії 7 з 12) / Rozen Maiden: Träumend (season 2, episodes 7 of 12) (2005) Jap | sub Ukr

Нові коментарі

Нова тема   Відповісти
Останній раз роздавалося Moroz Andrii (2017-08-23)
Автор Повідомлення
animeguy 
Новенький


З нами з: 04.09.13
Востаннє: 20.08.17
Повідомлень: 21

2014-12-01 23:01  
Діви Розена: Сни (сезон 2, серії 7 з 12) / Rozen Maiden: Träumend (season 2, episodes 7 of 12) (2005) Jap | sub Ukr

Діви Розена: Сни (сезон 2, серії 7 з 12) / Rozen Maiden: Träumend (season 2, episodes 7 of 12) (2005) Jap | sub Ukr


Жанр: анімація, містика, комедія
Країна: Японія



Студія: Nomad
Режисер: Ко Мацуо
Сейю: Міюкі Савашіро, Асамі Санада, Ріе Танака, Сакура Ноґава, Нацуко Куватані, Ріка Морінаґа, Саорі Ґото, Юмі Шімура, Норіко Рікімару, Масайо Курата, Дайске Оно, Такахіро Сакурай

Сюжет:
Після знищення Суйґінто герої повернулися до звичного життя. Джюн збирається знову піти до школи, Норі тренується (скоро важливий матч), Суйсейсекі воює з Хіна Ічіґо, а Соусейсекі намагається навернути сестру-близнючку на розум.
І тільки Шінку мучать нічні жахи та докори сумління, про які не наважується розповісти навіть Джюнові. Тож коли в будинку з’являється Меймей, штучний дух Суйґінто, вона відразу слідує за ним. І потрапляє до N-поля останньої, сьомої ляльки, Барасуйшьо.
Гру Аліси розпочато. Яку роль у ній зіграє Джюн? Чи залишиться він «хлопцем, що лише накрутив пружину»?


Тривалість: 7 серій по 00:24:10
Якість:
Відео:
кодек:
розмір кадру: 1024 х 576
бітрейт: 3034 кб/с

Аудіо:
мова: японська
переклад: оригінал
кодек: 2.0
бітрейт: 384 кб/с

Субтитри:
мова: українська
тип: програмні (м'які)
формат: *.ass
Переклад: kotobenko
Корекція: DEMO

Список серій

01. Barasuishou/Rozenkristall/Барасуйшьо
02. Enju/Енджю
03. Kanaria/Kanarienvogel/Канарія
04. Keiyaku/Vereinbarung/Контракт
05. Tegami/Der Brief/Лист
06. Tenshi/Engel/Янгол
07. Chakai/Teegesellschaft/Чаювання

Звіт Info

General
Unique ID : 182413661482750244756336417207634866873 (0x893B97E1F38DFA5C968B72013F37B2B9)
Complete name : E:\roze\TV-2\[kotobenko] Rozen Maiden Träumend - ( 1024x576 UKR SUB)\[kotobenko] Rozen Maiden Träumend - 01 ( 1024x576 UKR SUB).
Format :
Format version : Version 4 / Version 2
File size : 604 MiB
Duration : 24mn 10s
Overall bit rate : 3 491 Kbps
Encoded date : UTC 2014-12-01 13:26:08
Writing application : mkvmerge v7.3.0 ('Nouages') 64bit built on Oct 22 2014 18:53:34
Writing library : libebml v1.3.0 + libmatroska v1.4.1
DURATION : 00:24:06.320000000
NUMBER_OF_FRAMES : 381
NUMBER_OF_BYTES : 25765
_STATISTICS_WRITING_APP : mkvmerge v7.3.0 ('Nouages') 64bit built on Oct 22 2014 18:53:34
_STATISTICS_WRITING_DATE_UTC : 2014-12-01 13:26:08
_STATISTICS_TAGS : BPS DURATION NUMBER_OF_FRAMES NUMBER_OF_BYTES
Attachment : Yes / Yes / Yes / Yes / Yes

Video
ID : 1
Format : AVC
Format/Info : Advanced Video Codec
Format profile : [email protected]
Format settings, CABAC : Yes
Format settings, ReFrames : 8 frames
Codec ID : V_MPEG4/ISO/AVC
Duration : 24mn 10s
Bit rate : 3 038 Kbps
Nominal bit rate : 3 675 Kbps
Width : 1 024 pixels
Height : 576 pixels
Display aspect ratio : 16:9
Frame rate mode : Constant
Frame rate : 23.976 fps
Original frame rate : 29.970 fps
Color space : YUV
Chroma subsampling : 4:2:0
Bit depth : 8 bits
Scan type : Progressive
Bits/(Pixel*Frame) : 0.215
Stream size : 525 MiB (87%)
Writing library : core 110 r1804 e89c4cf
Encoding settings : cabac=1 / ref=8 / deblock=1:-2:-2 / analyse=0x3:0x133 / me=umh / subme=9 / psy=1 / psy_rd=0.85:0.00 / mixed_ref=1 / me_range=24 / chroma_me=1 / trellis=2 / 8x8dct=1 / cqm=0 / deadzone=21,11 / fast_pskip=1 / chroma_qp_offset=-2 / threads=3 / sliced_threads=0 / nr=0 / decimate=0 / interlaced=0 / constrained_intra=0 / bframes=10 / b_pyramid=2 / b_adapt=2 / b_bias=0 / direct=3 / weightb=1 / open_gop=0 / weightp=2 / keyint=250 / keyint_min=25 / scenecut=40 / intra_refresh=0 / rc=2pass / mbtree=0 / bitrate=3675 / ratetol=60.0 / qcomp=0.70 / qpmin=8 / qpmax=28 / qpstep=4 / cplxblur=20.0 / qblur=0.5 / ip_ratio=1.40 / pb_ratio=1.30 / aq=1:0.85
Default : Yes
Forced : No
Matrix coefficients : BT.601

Audio
ID : 2
Format : AC-3
Format/Info : Audio Coding 3
Mode extension : CM (complete main)
Format settings, Endianness : Big
Codec ID : A_AC3
Duration : 24mn 10s
Bit rate mode : Constant
Bit rate : 384 Kbps
Channel(s) : 2 channels
Channel positions : Front: L R
Sampling rate : 48.0 KHz
Bit depth : 16 bits
Compression mode : Lossy
Stream size : 66.4 MiB (11%)
Language : Japanese
Default : Yes
Forced : No

Text
ID : 3
Format : ASS
Codec ID : S_TEXT/ASS
Codec ID/Info : Advanced Sub Station Alpha
Compression mode : Lossless
Title : [kotobenko] Rozen Maiden Träumend - 01 ( 1024x576 UKR SUB)
Language : Ukrainian
Default : Yes
Forced : No
Скриншоти

Джерело:
Особиста оцінка: 8 - мені сподобалося, особливо комедійна частина

За постер велика подяка Лунсарові


Золотий реліз (завантажене не впливає на рейтинг)
 Трекер:    Зареєстрований   

Завантажити / скачати аніме українською



відео для новачків



 Зареєстрований:   2015-01-11 22:49
 Розмір:   3.98 GB 
 Оцінка аніме:   9/10 (Голосів: 2)
   
Gwean 
Відео Гуртом - фільмокрай
Відео Гуртом - фільмокрай


З нами з: 28.07.12
Востаннє: 22.08.17
Повідомлень: 449

2014-12-01 23:09  
Здається, це трохи в інший розділ. З сабами https://toloka.to/f194
Тут з озвучкою викладують.

animeguy 
Новенький


З нами з: 04.09.13
Востаннє: 20.08.17
Повідомлень: 21

2014-12-01 23:11  
Gwean
Так, копіював опис нашвидкоруч, тому помилився. Як перенести в потрібний розділ?

Gwean 
Відео Гуртом - фільмокрай
Відео Гуртом - фільмокрай


З нами з: 28.07.12
Востаннє: 22.08.17
Повідомлень: 449

2014-12-01 23:14  
animeguy
Внизу сторінки є кнопка "Перенести тему". Одразу під "Нова тема".

bot 
робот


З нами з: 30.09.07
Востаннє: 26.05.05
Повідомлень: 17418

2014-12-01 23:16  
Тему перенесено з Аніме до форуму Аніме


animeguy

ImfromUkraine 
VIP


З нами з: 18.02.12
Востаннє: 22.08.17
Повідомлень: 289

2014-12-02 00:36  
"Скриншоти" - поправте)
а за аніме дякую)

animeguy 
Новенький


З нами з: 04.09.13
Востаннє: 20.08.17
Повідомлень: 21

2014-12-02 01:06  
ImfromUkraine
Цитата:
"Скриншоти" - поправте)

За правилом дев'ятки нормальним є саме таке написання.

Цитата:
а за аніме дякую)

Будь ласка. Постараюся, щоб не було такої нерегулярності, як того разу.

animeguy 
Новенький


З нами з: 04.09.13
Востаннє: 20.08.17
Повідомлень: 21

2014-12-05 16:24  
Додано 5 серію.
animeguy 
Новенький


З нами з: 04.09.13
Востаннє: 20.08.17
Повідомлень: 21

2015-01-08 02:15  
Додано 6 та 7 серії.
Робота над релізом продовжиться у кінці лютого (сесія).

Ваш часовий пояс: GMT + 2 Години

Нова тема   Відповісти