Кіт Грім і зачарований дім / The House of Magic (2013) 720p Ukr/Eng

Нові коментарі

Нова тема   Відповісти
Автор Повідомлення
AngryBirdsUA 
Свій


З нами з: 24.02.10
Востаннє: 16.08.17
Повідомлень: 3097

2014-12-01 11:30  
Кіт Грім і зачарований дім / The House of Magic (2013) 720p Ukr/Eng

Кіт Грім і зачарований дім / The House of Magic (2013) 720p Ukr/Eng


Жанр: анімація, пригодницький, комедія
Країна: Бельгія



Кінокомпанія: nWave Pictures, Studio Canal International, Anton Capital Entertainment (ACE)
Режисер: Джеремі Деґрусон, Бен Стассен
Актори: Сінда Адамс, Едвард Еснер, Емілі Блант, Юджин Леві, Джої Камен, Ґрант Джордж, Юен МакҐреґор, Рон Перлмен, Вільям Шетнер, Кіфер Сазерленд

Сюжет:
Цікавий рудий кіт потрапляє в будинок старого фокусника і дізнається секрет його трюків. Так починається його знайомство з вченими звірами і живими іграшками, а також вас чекають неймовірні пригоди сповнені гумору і небезпек!


Тривалість: 01:25:08
Якість: 720p (Hurtom)
Відео:
кодек:
розмір кадру: 1280 х 720
бітрейт: 5000 кб/с

Аудіо # 1:
мова: українська
переклад: професійний дубльований
кодек: 5.1
бітрейт: 1510 кб/с


Інформація про дубляж
Переклад: Юлії Когут
Ролі дублювали: Юлія Перенчук, Андрій Альохін, Юрій Ребрик, Дмитро Завадський, Ірина Грей, Олена Узлюк, Анастасія Зіновенко, Анатолій Зіновенко, Ярослав Чорненький, Олександр Єфімов та інші.
Мультфільм дубльовано студією ААА-sound у 2014 році на замовлення Вольга Україна.



Аудіо # 2:
мова: англійська
переклад: оригінал
кодек: 5.1
бітрейт: 640 кб/с
Info
General
Unique ID : 171213415006011967301176061611361427222 (0x80CE8118C310B837A52F342525BBDF16)
Complete name : E:\The House of Magic (2013) 720p [Ukr.Eng] [Hurtom].
Format :
Format version : Version 4 / Version 2
File size : 4.25 GiB
Duration : 1h 25mn
Overall bit rate : 7 155 Kbps
Encoded date : UTC 2015-02-20 19:01:43
Writing application : mkvmerge v7.6.0 ('Garden of Dreams') 64bit built on Feb 8 2015 13:04:34
Writing library : libebml v1.3.1 + libmatroska v1.4.2
Attachements : poster.jpg
DURATION : 01:25:08.203000000
NUMBER_OF_FRAMES : 478894
NUMBER_OF_BYTES : 963534728
_STATISTICS_WRITING_APP : mkvmerge v7.6.0 ('Garden of Dreams') 64bit built on Feb 8 2015 13:04:34
_STATISTICS_WRITING_DATE_UT : 2015-02-20 19:01:43
_STATISTICS_TAGS : BPS DURATION NUMBER_OF_FRAMES NUMBER_OF_BYTES

Video
ID : 1
Format : AVC
Format/Info : Advanced Video Codec
Format profile : [email protected]
Format settings, CABAC : Yes
Format settings, ReFrames : 9 frames
Codec ID : V_MPEG4/ISO/AVC
Duration : 1h 25mn
Bit rate : 5 000 Kbps
Width : 1 280 pixels
Height : 720 pixels
Display aspect ratio : 16:9
Frame rate mode : Constant
Frame rate : 23.976 fps
Color space : YUV
Chroma subsampling : 4:2:0
Bit depth : 8 bits
Scan type : Progressive
Bits/(Pixel*Frame) : 0.226
Stream size : 2.89 GiB (68%)
Writing library : core 142 r2479 dd79a61
Encoding settings : cabac=1 / ref=9 / deblock=1:1:1 / analyse=0x1:0x131 / me=umh / subme=9 / psy=1 / psy_rd=0.40:0.00 / mixed_ref=1 / me_range=16 / chroma_me=1 / trellis=2 / 8x8dct=0 / cqm=0 / deadzone=21,11 / fast_pskip=1 / chroma_qp_offset=-2 / threads=6 / lookahead_threads=1 / sliced_threads=0 / nr=0 / decimate=1 / interlaced=0 / bluray_compat=0 / constrained_intra=0 / bframes=5 / b_pyramid=2 / b_adapt=2 / b_bias=0 / direct=3 / weightb=1 / open_gop=0 / weightp=2 / keyint=240 / keyint_min=24 / scenecut=40 / intra_refresh=0 / rc_lookahead=60 / rc=2pass / mbtree=1 / bitrate=5000 / ratetol=1.0 / qcomp=0.60 / qpmin=0 / qpmax=69 / qpstep=4 / cplxblur=20.0 / qblur=0.5 / vbv_maxrate=50000 / vbv_bufsize=62500 / nal_hrd=none / filler=0 / ip_ratio=1.40 / aq=1:0.60
Default : Yes
Forced : No
Color primaries : BT.709
Transfer characteristics : BT.709
Matrix coefficients : BT.709
Color range : Limited
DURATION : 01:25:08.104000000
NUMBER_OF_FRAMES : 122472
NUMBER_OF_BYTES : 3194680136
_STATISTICS_WRITING_APP : mkvmerge v7.6.0 ('Garden of Dreams') 64bit built on Feb 8 2015 13:04:34
_STATISTICS_WRITING_DATE_UT : 2015-02-20 19:01:43
_STATISTICS_TAGS : BPS DURATION NUMBER_OF_FRAMES NUMBER_OF_BYTES

Audio #1
ID : 2
Format :
Format/Info : Digital Theater Systems
Mode : 16
Format settings, Endianness : Big
Codec ID : A_DTS
Duration : 1h 25mn
Bit rate mode : Constant
Bit rate : 1 509 Kbps
Channel(s) : 6 channels
Channel positions : Front: L C R, Side: L R, LFE
Sampling rate : 48.0 KHz
Bit depth : 24 bits
Compression mode : Lossy
Delay relative to video : -83ms
Stream size : 919 MiB (21%)
Language : Ukrainian
Default : Yes
Forced : No

Audio #2
ID : 3
Format : AC-3
Format/Info : Audio Coding 3
Mode extension : CM (complete main)
Format settings, Endianness : Big
Codec ID : A_AC3
Duration : 1h 25mn
Bit rate mode : Constant
Bit rate : 640 Kbps
Channel(s) : 6 channels
Channel positions : Front: L C R, Side: L R, LFE
Sampling rate : 48.0 KHz
Bit depth : 16 bits
Compression mode : Lossy
Delay relative to video : -83ms
Stream size : 390 MiB (9%)
Language : English
Default : No
Forced : No


Джерело:


 Трекер:    Зареєстрований   

Завантажити / скачати мультфільм українською



відео для новачків



 Зареєстрований:   2015-02-20 22:10
 Розмір:   4.25 GB 
 Оцінка мультфільму:   9/10 (Голосів: 36)
   
Vovka morkovka 
Свій


З нами з: 24.11.10
Востаннє: 10.08.17
Повідомлень: 72

2014-12-07 12:24  
А коли з'явиться у 1080?
EduardGol 
Поважний учасник


З нами з: 03.10.13
Востаннє: 15.08.17
Повідомлень: 169

2014-12-20 14:21  
Прикольний мультик. Happy
andreyshanta 
Новенький


З нами з: 02.10.13
Востаннє: 27.07.16
Повідомлень: 4

2015-01-02 19:23  
Чудовий мультфільм
Quack 
Свій


З нами з: 17.02.15
Востаннє: 01.08.15
Повідомлень: 58

2015-02-26 22:47  
Дякую за мульт.
Ваш часовий пояс: GMT + 2 Години

Нова тема   Відповісти