Право на вбивство / Righteous Kill (2008) 1080p 3xUkr/Eng | Sub Eng/Multi

Нові коментарі

Нова тема   Відповісти
Автор Повідомлення
Anonymous 







2014-11-29 03:15  
Право на вбивство / Righteous Kill (2008) 1080p 3xUkr/Eng | Sub Eng/Multi

Право на вбивство / Righteous Kill (2008) 1080p 3xUkr/Eng | Sub Eng/Multi
Оригінальні обкладинки:

Право на вбивство / Righteous Kill (2008) 1080p 3xUkr/Eng | Sub Eng/Multi



Жанр: бойовик, трилер, драма, кримінальний, детектив
Країна: США



Кінокомпанія: Millennium Films, Emmett/Furla Films, Grosvenor Park Media, Righteous Productions, Brooklyn Films, InVenture Entertainment, Nu Image Films, Open Pictures
Режисер: Джон Евнет / Jon Avnet
Актори: Роберт Де Ніро / Robert De Niro, Аль Пачіно / Al Pacino, Фіфті Сент / 50 Cent, Карла Гуджино / Carla Gugino, Джон Легуізамо / John Leguizamo, Донні Волберг / Donnie Wahlberg, Брайан Деннехі / Brian Dennehy, Трілбі Гловер / Trilby Glover, Алан Розенберг / Alan Rosenberg та інші

Сюжет:
Невловимий вбивця-месник за допомогою пістолета вершить своє правосуддя над злочинцями, що зуміли вислизнути з лап закону. Детективи-напарники Девід Фіск і Томас Кований беруться за цю заплутану справу. Проте несподіваний хід кілера плутає всі карти, і друзі виявляються під підозрою у колег. Тепер їм потрібно за будь-яку ціну знайти справжнього «стрільця», щоб зняти з себе звинувачення у серійних вбивствах.
Офіційний трейлер (англомовний):

Рейтинг MPAA: R - особам до 17 років обов'язкова присутність батьків або дорослого опікуна
Вікова категорія: 16+

Тривалість: 01:40:48
Якість: 1080p [ріп від SbR]

Відео:
кодек:
розмір кадру: 1920x816
бітрейт: 16,7 Мб/с [crf=19]

Аудіо # 1:
мова: українська
переклад: професійний дубльований
кодек: 2.0
бітрейт: 192 кбіт/с

Аудіо # 2:
мова: українська
переклад: багатоголосий закадровий
кодек: 2.0
бітрейт: 192 кб/с

Аудіо # 3:
мова: українська
переклад: багатоголосий закадровий
кодек: 2.0
бітрейт: 192 кб/с

Аудіо # 4:
мова: англійська
переклад: оригінал
кодек: 5.1
бітрейт: 1510 кбіт/с

Аудіо # 5:
мова: англійська
переклад: коментар режисера Джона Евнета
кодек: OGG 2.0
бітрейт: 80 кбіт/с

Субтитри # 1-10:
мова: англійська (2 шт.), чеська, німецька, фінська, угорська, польська, румунська, іспанська, шведська
тип: програмні (м'які)
формат: srt (1), (2-10)

Збережено оригінальні розділи, як на Blu-ray
Info та log
Код:

Complete name               : Righteous Kill (2008) [3xUkr,Eng sub.Eng,Multi] 1080p [Hurtom].
Format                      :
Format version              : Version 4
File size                   : 13.4 GiB
Duration                    : 1 h 40 min
Overall bit rate            : 19.0 Mb/s
Movie name                  : Право на вбивство / Righteous Kill (2008) [3xUkr,Eng sub.Eng,Multi] 1080p [Hurtom]
Encoded date                : UTC 2019-06-20 13:00:09
Writing application         : v34.0.0 ('Sight and Seen') 64-bit
Writing library             : libebml v1.3.7 + v1.5.0
Cover                       : Yes
Attachments                 : cover.jpg / cover.jpg / CronosPro-Bold.ttf / CronosPro-Semibold.ttf / CronosPro-SemiboldIt.ttf

Video
ID                          : 1
Format                      : AVC
Format/Info                 : Advanced Video Codec
Format profile              : [email protected]
Format settings             : CABAC / 5 Ref Frames
Format settings, CABAC      : Yes
Format settings, Reference  : 5 frames
Codec ID                    : V_MPEG4/ISO/AVC
Duration                    : 1 h 40 min
Bit rate                    : 16.7 Mb/s
Width                       : 1 920 pixels
Height                      : 816 pixels
Display aspect ratio        : 2.35:1
Frame rate mode             : Constant
Frame rate                  : 23.976 (24000/1001) FPS
Color space                 : YUV
Chroma subsampling          : 4:2:0
Bit depth                   : 8 bits
Scan type                   : Progressive
Bits/(Pixel*Frame)          : 0.445
Stream size                 : 11.8 GiB (88%)
Title                       : Право на вбивство / Righteous Kill (2008) 1080p [SbR]
Writing library             : core 142 r2431+42 c69a006 tMod [[email protected]:2:0 X86_64]
Encoding settings           : cabac=1 / ref=5 / deblock=1:-2:-2 / analyse=0x3:0x133 / me=umh / subme=11 / psy=1 / fade_compensate=0.00 / psy_rd=1.00:0.00 / mixed_ref=1 / me_range=32 / chroma_me=1 / trellis=2 / 8x8dct=1 / cqm=0 / deadzone=21,11 / fast_pskip=1 / chroma_qp_offset=-2 / threads=12 / lookahead_threads=2 / sliced_threads=0 / nr=0 / decimate=1 / interlaced=0 / bluray_compat=0 / constrained_intra=0 / fgo=0 / bframes=9 / b_pyramid=2 / b_adapt=2 / b_bias=0 / direct=1 / weightb=1 / open_gop=0 / weightp=2 / keyint=250 / keyint_min=23 / scenecut=40 / intra_refresh=0 / rc_lookahead=60 / rc=crf / mbtree=0 / crf=19.0000 / qcomp=0.70 / qpmin=0:0:0 / qpmax=69:69:69 / qpstep=4 / vbv_maxrate=62500 / vbv_bufsize=78125 / crf_max=0.0 / nal_hrd=none / filler=0 / ip_ratio=1.40 / pb_ratio=1.30 / aq=4:0.70 / aq-sensitivity=11.00 / aq-factor=1.00:1.00:1.00 / aq2=1:0.60 / aq2-sensitivity=9.00 / aq2-factor=1.00:1.00:1.00 / aq3=1:[0.60:0.60]:[0.60:0.60]:[0.60:0.60]:[0.60:0.60] / aq3-sensitivity=10.00 / aq3-factor=[1.00:1.00]:[1.00:1.00]:[1.00:1.00] / aq3-boundary=192:64:24
Language                    : English
Default                     : Yes
Forced                      : No
Color range                 : Limited
Color primaries             : BT.709
Transfer characteristics    : BT.709
Matrix coefficients         : BT.709

Audio #1
ID                          : 2
Format                      : AC-3
Format/Info                 : Audio Coding 3
Commercial name             : Dolby Digital
Codec ID                    : A_AC3
Duration                    : 1 h 40 min
Bit rate mode               : Constant
Bit rate                    : 192 kb/s
Channel(s)                  : 2 channels
Channel layout              : L R
Sampling rate               : 48.0 kHz
Frame rate                  : 31.250 FPS (1536 SPF)
Bit depth                   : 16 bits
Compression mode            : Lossy
Stream size                 : 138 MiB (1%)
Title                       : Dub [1+1] 2.0 192 Kbps
Language                    : Ukrainian
Service kind                : Complete Main
Default                     : Yes
Forced                      : No

Audio #2
ID                          : 3
Format                      : AC-3
Format/Info                 : Audio Coding 3
Commercial name             : Dolby Digital
Codec ID                    : A_AC3
Duration                    : 1 h 40 min
Bit rate mode               : Constant
Bit rate                    : 192 kb/s
Channel(s)                  : 2 channels
Channel layout              : L R
Sampling rate               : 48.0 kHz
Frame rate                  : 31.250 FPS (1536 SPF)
Bit depth                   : 16 bits
Compression mode            : Lossy
Stream size                 : 138 MiB (1%)
Title                       : MVO [Volia Cine+] 2.0 192 Kbps
Language                    : Ukrainian
Service kind                : Complete Main
Default                     : No
Forced                      : No

Audio #3
ID                          : 4
Format                      : AC-3
Format/Info                 : Audio Coding 3
Commercial name             : Dolby Digital
Codec ID                    : A_AC3
Duration                    : 1 h 40 min
Bit rate mode               : Constant
Bit rate                    : 192 kb/s
Channel(s)                  : 2 channels
Channel layout              : L R
Sampling rate               : 48.0 kHz
Frame rate                  : 31.250 FPS (1536 SPF)
Bit depth                   : 16 bits
Compression mode            : Lossy
Stream size                 : 138 MiB (1%)
Title                       : MVO [NLO.TV] 2.0 192 Kbps
Language                    : Ukrainian
Service kind                : Complete Main
Default                     : No
Forced                      : No

Audio #4
ID                          : 5
Format                      :
Format/Info                 : Digital Theater Systems
Codec ID                    : A_DTS
Duration                    : 1 h 40 min
Bit rate mode               : Constant
Bit rate                    : 1 509 kb/s
Channel(s)                  : 6 channels
Channel layout              : C L R Ls Rs LFE
Sampling rate               : 48.0 kHz
Frame rate                  : 93.750 FPS (512 SPF)
Bit depth                   : 24 bits
Compression mode            : Lossy
Stream size                 : 1.06 GiB (8%)
Title                       : Original, 5.1 1510 Kbps
Language                    : English
Default                     : No
Forced                      : No

Audio #5
ID                          : 6
Format                      : AC-3
Format/Info                 : Audio Coding 3
Commercial name             : Dolby Digital
Codec ID                    : A_AC3
Duration                    : 1 h 40 min
Bit rate mode               : Constant
Bit rate                    : 192 kb/s
Channel(s)                  : 2 channels
Channel layout              : L R
Sampling rate               : 48.0 kHz
Frame rate                  : 31.250 FPS (1536 SPF)
Bit depth                   : 16 bits
Compression mode            : Lossy
Stream size                 : 138 MiB (1%)
Title                       : Commentary by director Jon Avnet
Language                    : English
Service kind                : Complete Main
Default                     : No
Forced                      : No

Text #1
ID                          : 7
Format                      : UTF-8
Codec ID                    : S_TEXT/UTF8
Codec ID/Info               : UTF-8 Plain Text
Duration                    : 1 h 34 min
Bit rate                    : 82 b/s
Count of elements           : 1622
Stream size                 : 57.2 KiB (0%)
Language                    : English
Default                     : No
Forced                      : No

Text #2
ID                          : 8
Format                      :
Codec ID                    : S_TEXT/
Codec ID/Info               : Advanced Sub Station Alpha
Duration                    : 1 h 34 min
Bit rate                    : 151 b/s
Count of elements           : 1622
Compression mode            : Lossless
Stream size                 : 105 KiB (0%)
Language                    : English
Default                     : No
Forced                      : No

Text #3
ID                          : 9
Format                      :
Codec ID                    : S_TEXT/
Codec ID/Info               : Advanced Sub Station Alpha
Duration                    : 1 h 34 min
Bit rate                    : 142 b/s
Count of elements           : 1506
Compression mode            : Lossless
Stream size                 : 98.7 KiB (0%)
Language                    : Czech
Default                     : No
Forced                      : No

Text #4
ID                          : 10
Format                      :
Codec ID                    : S_TEXT/
Codec ID/Info               : Advanced Sub Station Alpha
Duration                    : 1 h 34 min
Bit rate                    : 124 b/s
Count of elements           : 1135
Compression mode            : Lossless
Stream size                 : 86.2 KiB (0%)
Language                    : Dutch
Default                     : No
Forced                      : No

Text #5
ID                          : 11
Format                      :
Codec ID                    : S_TEXT/
Codec ID/Info               : Advanced Sub Station Alpha
Duration                    : 1 h 34 min
Bit rate                    : 115 b/s
Count of elements           : 1054
Compression mode            : Lossless
Stream size                 : 79.9 KiB (0%)
Language                    : Finnish
Default                     : No
Forced                      : No

Text #6
ID                          : 12
Format                      :
Codec ID                    : S_TEXT/
Codec ID/Info               : Advanced Sub Station Alpha
Duration                    : 1 h 34 min
Bit rate                    : 131 b/s
Count of elements           : 1421
Compression mode            : Lossless
Stream size                 : 91.3 KiB (0%)
Language                    : Hungarian
Default                     : No
Forced                      : No

Text #7
ID                          : 13
Format                      :
Codec ID                    : S_TEXT/
Codec ID/Info               : Advanced Sub Station Alpha
Duration                    : 1 h 34 min
Bit rate                    : 138 b/s
Count of elements           : 1429
Compression mode            : Lossless
Stream size                 : 96.2 KiB (0%)
Language                    : Polish
Default                     : No
Forced                      : No

Text #8
ID                          : 14
Format                      :
Codec ID                    : S_TEXT/
Codec ID/Info               : Advanced Sub Station Alpha
Duration                    : 1 h 34 min
Bit rate                    : 138 b/s
Count of elements           : 1398
Compression mode            : Lossless
Stream size                 : 96.2 KiB (0%)
Language                    : Romanian
Default                     : No
Forced                      : No

Text #9
ID                          : 15
Format                      :
Codec ID                    : S_TEXT/
Codec ID/Info               : Advanced Sub Station Alpha
Duration                    : 1 h 34 min
Bit rate                    : 148 b/s
Count of elements           : 1601
Compression mode            : Lossless
Stream size                 : 104 KiB (0%)
Language                    : Spanish
Default                     : No
Forced                      : No

Text #10
ID                          : 16
Format                      :
Codec ID                    : S_TEXT/
Codec ID/Info               : Advanced Sub Station Alpha
Duration                    : 1 h 34 min
Bit rate                    : 93 b/s
Count of elements           : 875
Compression mode            : Lossless
Stream size                 : 64.7 KiB (0%)
Language                    : Swedish
Default                     : No
Forced                      : No

Menu
00:00:00.000                : en:Main Titles
00:03:26.664                : en:Unacceptable Acquittal
00:10:06.606                : en:Club 404 of Harlem
00:13:53.833                : en:Skateboard Pimp
00:22:17.586                : en:Not Your Average Rat
00:26:28.211                : en:"Everybody Respects the Gun"
00:29:52.415                : en:The Infield Fly Rule
00:34:42.497                : en:In Cold Blood
00:39:51.430                : en:Psychology of the Shield
00:45:14.712                : en:Martin Baum
00:48:22.858                : en:So Many Altar Boys
00:55:15.228                : en:The One Percent
00:59:41.703                : en:"Who I Was and Where I Stood"
01:05:12.491                : en:Suspicions
01:08:48.541                : en:Yevgeny Mugalat
01:14:00.269                : en:The Unforgivable
01:20:01.129                : en:Searching for Answers
01:26:57.170                : en:A Loss of Faith
01:34:06.182                : en:A Brother in Arms
01:36:00.129                : en:End Credits


Код:
[info]: 1920x816p 1:1 @ 24000/1001 fps (cfr)
[info]: color matrix: bt709
[info]: using SAR=1/1
[info]: using cpu capabilities: MMX2 SSE2Fast SSSE3 SSE4.2 AVX
[info]: profile High, level 4.1
[info]: started at Fri Jun 27 23:58:24 2014
[info]: frame I:1236  Avg QP:16.72  size:270932
[info]: frame P:27697 Avg QP:17.86  size:143422
[info]: frame B:116075 Avg QP:19.94  size: 71685
[info]: consecutive B-frames:  1.6%  1.2%  3.2% 18.6% 15.8% 30.5% 11.4% 14.0%  3.0%  0.8%
[info]: mb I  I16..4:  8.9% 69.3% 21.8%
[info]: mb P  I16..4:  1.2% 27.8%  2.2%  P16..4: 19.8% 25.6% 10.5%  2.1%  0.1%    skip:10.7%
[info]: mb B  I16..4:  0.1%  3.9%  0.3%  B16..8: 41.2% 20.6%  4.9%  direct:10.1%  skip:18.9%  L0:43.8% L1:41.5% BI:14.8%
[info]: 8x8 transform intra:88.1% inter:45.4%
[info]: coded y,uvDC,uvAC intra: 94.6% 90.6% 78.1% inter: 55.5% 44.3% 13.0%
[info]: i16 v,h,dc,p: 53% 13% 13% 20%
[info]: i8 v,h,dc,ddl,ddr,vr,hd,vl,hu:  9%  7% 14% 11% 13% 12% 11% 12% 12%
[info]: i4 v,h,dc,ddl,ddr,vr,hd,vl,hu: 10% 11%  9%  9% 13% 12% 12% 11% 13%
[info]: i8c dc,h,v,p: 53% 16% 15% 17%
[info]: Weighted P-Frames: Y:2.9% UV:0.4%
[info]: ref P L0: 44.7%  9.4% 25.2% 10.3% 10.0%  0.4%  0.0%
[info]: ref B L0: 81.1% 13.7%  3.9%  1.3%
[info]: ref B L1: 93.1%  6.9%
[info]: kb/s:16703.62
[info]: encoded 145008 frames, 4.124 fps, 16703.62 kb/s, 12043 MB
[info]: ended at Sat Jun 28 09:44:27 2014
[info]: encoding duration 9:46:03





Джерела та подяки: &
Подяки за українські доріжки: JACKUS, olgaya, Sando7, РОМЕО, Arsenfpu. Українізований постер - офіційний; фільмографії акторів - Lion91 (всі - Гуртом).

20.06.2019 реліз оновлено - додано українське озвучення з Cine+ та НЛО ТБ.
Також додано набір субтитрів європейськими мовами


 Трекер:    Зареєстрований   

Завантажити / скачати фільм українською



відео для новачків



 Зареєстрований:   2019-06-20 16:20
 Розмір:   13.37 GB 
 Оцінка фільму:   5.2/10 (Голосів: 19)
 ЗАЛИШАЙТЕСЬ ЯКОМОГА ДОВШЕ НА РОЗДАЧІ! ЗАВАНТАЖИВ САМ - ДАЙ ЗАВАНТАЖИТИ ІНШИМ!
   
Anonymous 







2019-06-20 16:23  
Реліз оновлено - додано українське озвучення з Cine+ та НЛО ТБ
Також додано набір субтитрів європейськими мовами.

Окрема подяка п.kryk-v.ya. за допомогу.

Explorer UA 
Частий відвідувач


З нами з: 31.08.16
Востаннє: 27.05.20
Повідомлень: 37

2019-06-24 12:38  
Сподобався. Якщо абстрагуватися від поважного віку цієї трійки пенсіонерів-поліцейських, то досить цікаво дивитися.
Ваш часовий пояс: GMT + 2 Години

Нова тема   Відповісти