Право на вбивство / Righteous Kill (2008) 720p 3xUkr/Eng | Sub Eng/Multi

Нові коментарі

Нова тема   Відповісти
Автор Повідомлення
Anonymous 







2014-11-29 02:44  
Право на вбивство / Righteous Kill (2008) 720p 3xUkr/Eng | Sub Eng/Multi

Право на вбивство / Righteous Kill (2008) 720p 3xUkr/Eng | Sub Eng/Multi
Оригінальні обкладинки:

Право на вбивство / Righteous Kill (2008) 720p 3xUkr/Eng | Sub Eng/Multi



Жанр: бойовик, трилер, драма, кримінальний, детектив
Країна: США



Кінокомпанія: Millennium Films, Emmett/Furla Films, Grosvenor Park Media, Righteous Productions, Brooklyn Films, InVenture Entertainment, Nu Image Films, Open Pictures
Режисер: Джон Евнет / Jon Avnet
Актори: Роберт Де Ніро / Robert De Niro, Аль Пачіно / Al Pacino, Фіфті Сент / 50 Cent, Карла Гуджино / Carla Gugino, Джон Легуізамо / John Leguizamo, Донні Волберг / Donnie Wahlberg, Брайан Деннехі / Brian Dennehy, Трілбі Гловер / Trilby Glover, Алан Розенберг / Alan Rosenberg та інші

Сюжет:
Невловимий вбивця-месник за допомогою пістолета вершить своє правосуддя над злочинцями, що зуміли вислизнути з лап закону. Детективи-напарники Девід Фіск і Томас Кований беруться за цю заплутану справу. Проте несподіваний хід кілера плутає всі карти, і друзі виявляються під підозрою у колег. Тепер їм потрібно за будь-яку ціну знайти справжнього «стрільця», щоб зняти з себе звинувачення у серійних вбивствах.
Офіційний трейлер (англомовний):

Рейтинг MPAA: R - особам до 17 років обов'язкова присутність батьків або дорослого опікуна
Вікова категорія: 16+

Тривалість: 01:40:47
Якість: 720p [ріп від ESiR]

Відео:
кодек:
розмір кадру: 1280x544
бітрейт: 4607 кб/с

Аудіо # 1:
мова: українська
переклад: професійний дубльований
кодек: 2.0
бітрейт: 192 кбіт/с

Аудіо # 2:
мова: українська
переклад: багатоголосий закадровий
кодек: 2.0
бітрейт: 192 кб/с

Аудіо # 3:
мова: українська
переклад: багатоголосий закадровий
кодек: 2.0
бітрейт: 192 кб/с

Аудіо # 4:
мова: англійська
переклад: оригінал
кодек: 5.1
бітрейт: 1510 кбіт/с

Аудіо # 5:
мова: англійська
переклад: коментар режисера Джона Евнета
кодек: OGG 2.0
бітрейт: 80 кбіт/с

Субтитри # 1-9:
мова: англійська, чеська, німецька, фінська, угорська, польська, румунська, іспанська, шведська
тип: програмні (м'які)
формат: *.

Збережено оригінальні розділи, як на Blu-ray
Info
Код:

Complete name               : Righteous Kill (2008) [3xUkr,Eng sub.Eng,Multi] 720p [Hurtom].
Format                      :
Format version              : Version 4
File size                   : 4.77 GiB
Duration                    : 1 h 40 min
Overall bit rate mode       : Variable
Overall bit rate            : 6 770 kb/s
Movie name                  : Право на вбивство / Righteous Kill (2008) [3xUkr,Eng sub.Eng,Multi] 720p [Hurtom]
Encoded date                : UTC 2019-06-20 12:18:45
Writing application         : v34.0.0 ('Sight and Seen') 64-bit
Writing library             : libebml v1.3.7 + v1.5.0
Cover                       : Yes
Attachments                 : cover.jpg / CronosPro-Bold.ttf / CronosPro-Semibold.ttf / CronosPro-SemiboldIt.ttf

Video
ID                          : 1
Format                      : AVC
Format/Info                 : Advanced Video Codec
Format profile              : [email protected]
Format settings             : CABAC / 8 Ref Frames
Format settings, CABAC      : Yes
Format settings, Reference  : 8 frames
Codec ID                    : V_MPEG4/ISO/AVC
Duration                    : 1 h 40 min
Bit rate                    : 4 607 kb/s
Width                       : 1 280 pixels
Height                      : 544 pixels
Display aspect ratio        : 2.35:1
Frame rate mode             : Constant
Frame rate                  : 23.976 FPS
Color space                 : YUV
Chroma subsampling          : 4:2:0
Bit depth                   : 8 bits
Scan type                   : Progressive
Bits/(Pixel*Frame)          : 0.276
Stream size                 : 3.24 GiB (68%)
Title                       : Право на вбивство / Righteous Kill / Право на убийство (2008) 720p [ESiR]
Writing library             : core 65 r1046M 71d34b4
Encoding settings           : cabac=1 / ref=8 / deblock=1:-3:-3 / analyse=0x3:0x133 / me=umh / subme=9 / psy_rd=0.7:0.7 / mixed_ref=1 / me_range=40 / chroma_me=1 / trellis=2 / 8x8dct=1 / cqm=2 / deadzone=21,11 / chroma_qp_offset=-2 / threads=3 / nr=0 / decimate=1 / mbaff=0 / bframes=3 / b_pyramid=1 / b_adapt=2 / b_bias=0 / direct=1 / wpredb=1 / keyint=250 / keyint_min=25 / scenecut=40(pre) / rc=2pass / bitrate=4607 / ratetol=1.0 / qcomp=0.60 / qpmin=10 / qpmax=45 / qpstep=4 / cplxblur=20.0 / qblur=0.5 / ip_ratio=1.40 / pb_ratio=1.30 / aq=1:0.75
Language                    : English
Default                     : Yes
Forced                      : No

Audio #1
ID                          : 2
Format                      : AC-3
Format/Info                 : Audio Coding 3
Commercial name             : Dolby Digital
Codec ID                    : A_AC3
Duration                    : 1 h 40 min
Bit rate mode               : Constant
Bit rate                    : 192 kb/s
Channel(s)                  : 2 channels
Channel layout              : L R
Sampling rate               : 48.0 kHz
Frame rate                  : 31.250 FPS (1536 SPF)
Bit depth                   : 16 bits
Compression mode            : Lossy
Stream size                 : 138 MiB (3%)
Title                       : Dub [1+1] 2.0 192 kbps
Language                    : Ukrainian
Service kind                : Complete Main
Default                     : Yes
Forced                      : No

Audio #2
ID                          : 3
Format                      : AC-3
Format/Info                 : Audio Coding 3
Commercial name             : Dolby Digital
Codec ID                    : A_AC3
Duration                    : 1 h 40 min
Bit rate mode               : Constant
Bit rate                    : 192 kb/s
Channel(s)                  : 2 channels
Channel layout              : L R
Sampling rate               : 48.0 kHz
Frame rate                  : 31.250 FPS (1536 SPF)
Bit depth                   : 16 bits
Compression mode            : Lossy
Stream size                 : 138 MiB (3%)
Title                       : MVO [Volia Cine+] 2.0 192 Kbps
Language                    : Ukrainian
Service kind                : Complete Main
Default                     : No
Forced                      : No

Audio #3
ID                          : 4
Format                      : AC-3
Format/Info                 : Audio Coding 3
Commercial name             : Dolby Digital
Codec ID                    : A_AC3
Duration                    : 1 h 40 min
Bit rate mode               : Constant
Bit rate                    : 192 kb/s
Channel(s)                  : 2 channels
Channel layout              : L R
Sampling rate               : 48.0 kHz
Frame rate                  : 31.250 FPS (1536 SPF)
Bit depth                   : 16 bits
Compression mode            : Lossy
Stream size                 : 138 MiB (3%)
Title                       : MVO [NLO.TV] 2.0 192 Kbps
Language                    : Ukrainian
Service kind                : Complete Main
Default                     : No
Forced                      : No

Audio #4
ID                          : 5
Format                      :
Format/Info                 : Digital Theater Systems
Codec ID                    : A_DTS
Duration                    : 1 h 40 min
Bit rate mode               : Constant
Bit rate                    : 1 510 kb/s
Channel(s)                  : 6 channels
Channel layout              : C L R Ls Rs LFE
Sampling rate               : 48.0 kHz
Frame rate                  : 93.750 FPS (512 SPF)
Bit depth                   : 24 bits
Compression mode            : Lossy
Stream size                 : 1.06 GiB (22%)
Title                       : Original 5.1 1536 Kbps
Language                    : English
Default                     : No
Forced                      : No

Audio #5
ID                          : 6
Format                      : Vorbis
Format settings, Floor      : 1
Codec ID                    : A_VORBIS
Duration                    : 1 h 40 min
Bit rate mode               : Variable
Bit rate                    : 80.0 kb/s
Channel(s)                  : 2 channels
Sampling rate               : 48.0 kHz
Frame rate                  : 68.736 FPS (698 SPF)
Compression mode            : Lossy
Stream size                 : 51.5 MiB (1%)
Title                       : Commentary by director Jon Avnet
Writing library             : libVorbis 1.1.1/1.1.2 (UTC 2005-03-04)
Language                    : English
Default                     : No
Forced                      : No

Text #1
ID                          : 7
Format                      :
Codec ID                    : S_TEXT/
Codec ID/Info               : Advanced Sub Station Alpha
Duration                    : 1 h 34 min
Bit rate                    : 151 b/s
Count of elements           : 1622
Compression mode            : Lossless
Stream size                 : 105 KiB (0%)
Language                    : English
Default                     : No
Forced                      : No

Text #2
ID                          : 8
Format                      :
Codec ID                    : S_TEXT/
Codec ID/Info               : Advanced Sub Station Alpha
Duration                    : 1 h 34 min
Bit rate                    : 142 b/s
Count of elements           : 1506
Compression mode            : Lossless
Stream size                 : 98.7 KiB (0%)
Language                    : Czech
Default                     : No
Forced                      : No

Text #3
ID                          : 9
Format                      :
Codec ID                    : S_TEXT/
Codec ID/Info               : Advanced Sub Station Alpha
Duration                    : 1 h 34 min
Bit rate                    : 124 b/s
Count of elements           : 1135
Compression mode            : Lossless
Stream size                 : 86.2 KiB (0%)
Language                    : Dutch
Default                     : No
Forced                      : No

Text #4
ID                          : 10
Format                      :
Codec ID                    : S_TEXT/
Codec ID/Info               : Advanced Sub Station Alpha
Duration                    : 1 h 34 min
Bit rate                    : 115 b/s
Count of elements           : 1054
Compression mode            : Lossless
Stream size                 : 79.9 KiB (0%)
Language                    : Finnish
Default                     : No
Forced                      : No

Text #5
ID                          : 11
Format                      :
Codec ID                    : S_TEXT/
Codec ID/Info               : Advanced Sub Station Alpha
Duration                    : 1 h 34 min
Bit rate                    : 131 b/s
Count of elements           : 1421
Compression mode            : Lossless
Stream size                 : 91.3 KiB (0%)
Language                    : Hungarian
Default                     : No
Forced                      : No

Text #6
ID                          : 12
Format                      :
Codec ID                    : S_TEXT/
Codec ID/Info               : Advanced Sub Station Alpha
Duration                    : 1 h 34 min
Bit rate                    : 138 b/s
Count of elements           : 1429
Compression mode            : Lossless
Stream size                 : 96.2 KiB (0%)
Language                    : Polish
Default                     : No
Forced                      : No

Text #7
ID                          : 13
Format                      :
Codec ID                    : S_TEXT/
Codec ID/Info               : Advanced Sub Station Alpha
Duration                    : 1 h 34 min
Bit rate                    : 138 b/s
Count of elements           : 1398
Compression mode            : Lossless
Stream size                 : 96.2 KiB (0%)
Language                    : Romanian
Default                     : No
Forced                      : No

Text #8
ID                          : 14
Format                      :
Codec ID                    : S_TEXT/
Codec ID/Info               : Advanced Sub Station Alpha
Duration                    : 1 h 34 min
Bit rate                    : 148 b/s
Count of elements           : 1601
Compression mode            : Lossless
Stream size                 : 104 KiB (0%)
Language                    : Spanish
Default                     : No
Forced                      : No

Text #9
ID                          : 15
Format                      :
Codec ID                    : S_TEXT/
Codec ID/Info               : Advanced Sub Station Alpha
Duration                    : 1 h 34 min
Bit rate                    : 93 b/s
Count of elements           : 875
Compression mode            : Lossless
Stream size                 : 64.7 KiB (0%)
Language                    : Swedish
Default                     : No
Forced                      : No

Menu
00:00:00.000                : :Main Titles
00:03:26.664                : :Unacceptable Acquittal
00:10:06.606                : :Club 404 of Harlem
00:13:53.833                : :Skateboard Pimp
00:22:17.586                : :Not Your Average Rat
00:26:28.211                : :"Everybody Respects the Gun"
00:29:52.415                : :The Infield Fly Rule
00:34:42.497                : :In Cold Blood
00:39:51.430                : :Psychology of the Shield
00:45:14.712                : :Martin Baum
00:48:22.858                : :So Many Altar Boys
00:55:15.228                : :The One Percent
00:59:41.703                : :"Who I Was and Where I Stood"
01:05:12.491                : :Suspicions
01:08:48.541                : :Yevgeny Mugalat
01:14:00.269                : :The Unforgivable
01:20:01.129                : :Searching for Answers
01:26:57.170                : :A Loss of Faith
01:34:06.182                : :A Brother in Arms
01:36:00.129                : :End Credits




Джерела та подяки: &
Подяки за українські доріжки: JACKUS, olgaya, Sando7, РОМЕО, Arsenfpu. Українізований постер - офіційний; фільмографії акторів - Lion91 (всі - Гуртом).

20.06.2019 реліз оновлено - додано українське озвучення з Cine+ та НЛО ТБ, також додано оригінальні поіменовані розділи з Blu-ray


 Трекер:    Зареєстрований   

Завантажити / скачати фільм українською



відео для новачків



 Зареєстрований:   2019-06-20 15:39
 Розмір:   4.77 GB 
 Оцінка фільму:   6.3/10 (Голосів: 26)
 ЗАЛИШАЙТЕСЬ ЯКОМОГА ДОВШЕ НА РОЗДАЧІ! ЗАВАНТАЖИВ САМ - ДАЙ ЗАВАНТАЖИТИ ІНШИМ!
   
anatolyki 
Новенький


З нами з: 20.12.11
Востаннє: 28.05.20
Повідомлень: 20

2014-11-29 10:00  
Фільм хороший, бачив раніше.
zaika 
VIP


З нами з: 01.07.12
Востаннє: 28.05.20
Повідомлень: 1235

2014-12-04 08:55  
Надзвичайно динамічний фільм. Якось навіть не пасує до уже не молодих моїх улюблених акторів. Загалом сподобалось. 8/10.
Anonymous 







2019-06-20 15:42  
Реліз оновлено - додано українське озвучення з Cine+ та НЛО ТБ
Також додано оригінальні поіменовані розділи з Blu-ray (chapterdb.plex.tv)
Подяка п.kryk-v.ya. за допомогу.

Nickolassssssss 
VIP


З нами з: 31.05.14
Востаннє: 28.05.20
Повідомлень: 295

2019-07-09 10:32  
Гарний фільм, дуже порадував і здивував.
Ваш часовий пояс: GMT + 2 Години

Нова тема   Відповісти