Відважна Ліфі / Madangeul Naon Amtak (2011) 1080p Ukr/Kor

Нові коментарі

Нова тема   Відповісти
Автор Повідомлення
Smu 
Поважний учасник


З нами з: 26.11.11
Востаннє: 25.10.15
Повідомлень: 205

2014-11-26 12:11  
Відважна Ліфі / Madangeul Naon Amtak (2011) 1080p Ukr/Kor


Альтернативний постер
Фільм виборов премію Asia Pacific Screen Award за кращий анімаційний фільм.


Жанр: анімація, комедія, драма, сімейний
Країна: Південна Корея



Кінокомпанія: Myung Films, Lotte Entertainment, Odoltogi
Режисер: Сонюн О / Seong-yun Oh / 오성윤
Актори: Сорі Мун / So-ri Moon / 문소리, Синхо Ю / Seung Ho Yoo / 유승호, Мінсік Чоі / Min-sik Choi / 최민식, Чолмін Парк / Cheol-min Park / 박철민, Санюн Кім / Sang-hyun Kim / 김상현, Чон Суккйон / Jeon Sook-Kyeong / 전숙경

Сюжет:
Невгамовна курочка Ліфі залишає затишне сите життя на птахофабриці та вирушає до лісу. Там вона рятує маленьке каченя від ласки та бере його під своє крило. Неймовірно веселі й небезпечні пригоди чекають на цю дивну парочку.


Тривалість: 01:32:18
Якість: 1080p [F.H.D]
Відео:
кодек:
розмір кадру: 1920x1040
бітрейт: 6124 кб/с

Аудіо # 1:
мова: українська
переклад: багатоголосий закадровий
кодек: 2.0
бітрейт: 192 кб/с

Аудіо # 2:
мова: корейська
переклад: оригінал
кодек: 5.1
бітрейт: 640 кб/с

Джерело озвучення:


Субтитри:
мова: українська (форсовані - написи)
тип: програмні (м'які)
формат: *.srt

Збережено розділи.
Info
General
Unique ID : 212271884947677843275200155451732892350 (0x9FB213F50135F92D9F8D8D578EB19ABE)
Complete name : E:\v\torrent\hurtom\release\Madangeul.Naon.Amtak.2011.[Ukr,Kor]..1080p\Madangeul.Naon.Amtak.2011.[Ukr,Kor]..1080p.
Format :
Format version : Version 2
File size : 4.49 GiB
Duration : 1h 32mn
Overall bit rate : 6 958 Kbps
Encoded date : UTC 2014-11-25 19:07:58
Writing application : mkvmerge v5.8.0 ('No Sleep / Pillow') built on Sep 2 2012 15:37:04
Writing library : libebml v1.2.3 + libmatroska v1.3.0

Video
ID : 1
Format : AVC
Format/Info : Advanced Video Codec
Format profile : [email protected]
Format settings, CABAC : Yes
Format settings, ReFrames : 4 frames
Codec ID : V_MPEG4/ISO/AVC
Duration : 1h 32mn
Bit rate : 6 124 Kbps
Width : 1 920 pixels
Height : 1 040 pixels
Display aspect ratio : 1.85:1
Frame rate mode : Constant
Frame rate : 24.000 fps
Color space : YUV
Chroma subsampling : 4:2:0
Bit depth : 8 bits
Scan type : Progressive
Bits/(Pixel*Frame) : 0.128
Stream size : 3.86 GiB (86%)
Writing library : core 125 r2200 999b753
Encoding settings : cabac=1 / ref=4 / deblock=1:1:1 / analyse=0x3:0x113 / me=umh / subme=10 / psy=1 / psy_rd=0.90:0.00 / mixed_ref=1 / me_range=48 / chroma_me=1 / trellis=2 / 8x8dct=1 / cqm=0 / deadzone=21,11 / fast_pskip=0 / chroma_qp_offset=-2 / threads=6 / lookahead_threads=1 / sliced_threads=0 / nr=0 / decimate=1 / interlaced=0 / bluray_compat=0 / constrained_intra=0 / bframes=6 / b_pyramid=2 / b_adapt=2 / b_bias=0 / direct=3 / weightb=1 / open_gop=0 / weightp=2 / keyint=240 / keyint_min=24 / scenecut=40 / intra_refresh=0 / rc=2pass / mbtree=0 / bitrate=6124 / ratetol=1.0 / qcomp=0.70 / qpmin=0 / qpmax=69 / qpstep=4 / cplxblur=20.0 / qblur=0.5 / ip_ratio=1.40 / pb_ratio=1.30 / aq=1:0.60
Language : Korean
Default : Yes
Forced : No
Color primaries : BT.709
Transfer characteristics : BT.709
Matrix coefficients : BT.709

Audio #1
ID : 2
Format : AC-3
Format/Info : Audio Coding 3
Mode extension : CM (complete main)
Format settings, Endianness : Big
Codec ID : A_AC3
Duration : 1h 32mn
Bit rate mode : Constant
Bit rate : 192 Kbps
Channel(s) : 2 channels
Channel positions : Front: L R
Sampling rate : 48.0 KHz
Bit depth : 16 bits
Compression mode : Lossy
Stream size : 127 MiB (3%)
Language : Ukrainian
Default : Yes
Forced : No

Audio #2
ID : 3
Format : AC-3
Format/Info : Audio Coding 3
Mode extension : CM (complete main)
Format settings, Endianness : Big
Codec ID : A_AC3
Duration : 1h 32mn
Bit rate mode : Constant
Bit rate : 640 Kbps
Channel(s) : 6 channels
Channel positions : Front: L C R, Side: L R, LFE
Sampling rate : 48.0 KHz
Bit depth : 16 bits
Compression mode : Lossy
Stream size : 423 MiB (9%)
Language : Korean
Default : No
Forced : No

Text
ID : 4
Format : UTF-8
Codec ID : S_TEXT/UTF8
Codec ID/Info : UTF-8 Plain Text
Default : Yes
Forced : Yes

Menu
00:00:00.000 : en:Chapter 01
00:05:52.833 : en:Chapter 02
00:10:54.416 : en:Chapter 03
00:15:57.500 : en:Chapter 04
00:20:32.833 : en:Chapter 05
00:28:21.666 : en:Chapter 06
00:40:14.875 : en:Chapter 07
00:46:15.166 : en:Chapter 08
00:54:17.666 : en:Chapter 09
01:05:17.625 : en:Chapter 10
01:15:07.166 : en:Chapter 11
01:21:29.125 : en:Chapter 12
01:32:17.916 : en:Chapter 13
Скріншоти




Джерело: &
Особиста оцінка: 7 - деякі моменти вельми дивні. Але якщо це повнометражний дебют режисера, тоді добре. Це я дуже вимогливий. Фільм дуже красивий та з ідеєю.
А команда, яка працює над фонами не поступається команді Міязакі.

Запис з ТБ, робота з доріжками, переклад субтитрів: Smu


 Трекер:    Зареєстрований   

Завантажити / скачати мультфільм українською



відео для новачків



 Зареєстрований:   2014-11-26 12:11
 Розмір:   4.49 GB 
 Оцінка мультфільму:   9.5/10 (Голосів: 8)
   
Інші релізи
   Відважна Ліфі / Madangeul Naon Amtak (2011) Smu  2 / 0   1.29 GB   2014-11-27 10:55 
AngryBirdsUA 
Свій


З нами з: 24.02.10
Востаннє: 17.08.17
Повідомлень: 3097

2014-11-26 19:45  
зроблю 1,45
Smu 
Поважний учасник


З нами з: 26.11.11
Востаннє: 25.10.15
Повідомлень: 205

2014-11-27 11:02  
Перепрошую за перерву в роздачі. Очевидячки, наш трансформатор не витримав.

Vasua95
Навіщо? Із трохи більшим бітрейтом? Ось 1,3 Гб пристойної якості, як на мене:
https://toloka.to/t60985

Ваш часовий пояс: GMT + 2 Години

Нова тема   Відповісти