Переможець / Everyone's Hero (2006) 720p Ukr/Eng | Sub Eng

Нові коментарі

Нова тема   Відповісти
Останній раз роздавалося s_ua (2017-08-19)
Автор Повідомлення
omm 
Відео Гуртом - фільмокрай
Відео Гуртом - фільмокрай


З нами з: 12.06.12
Востаннє: 19.08.17
Повідомлень: 2198

2014-11-23 22:32  
Переможець / Everyone's Hero (2006) 720p Ukr/Eng | Sub Eng

Альтернативні постери




Жанр: анімація, комедія, пригодницький, сімейний, спорт
Країна: Канада, США



Кінокомпанія: Arc Productions, Dan Krech Productions, IDT Entertainment
Режисер: Колін Брейді / Colin Brady, Крістофер Рів / Christopher Reeve, Ден Ст. П'єр / Dan St. Pierre
Ролі озвучують: Річі Аллен / Ritchie Allen, Джейк Т. Остін / Jake T. Austin, Черіз Буф / Cherise Boothe, Джессі Бронштейн / Jesse Bronstein, Ральф Коппола / Ralph Coppola, Браян Деннегі / Brian Dennehy, Вупі Ґолдберґ / Whoopi Goldberg, Джейсон Гарріс / Jason Harris, Ед Гелмс / Ed Helms, Рей Яннічеллі / Ray Iannicelli та інші

Сюжет:
Історія, що розповідає про веселі пригоди пустотливого хлопчиська Янкі Ірвінґа та його незвичайних друзів, дотепного бейсбольного м'яча і нахабної битки. Разом з ними він прямує за своєю мрією з Нью-Йорка до Чикаґо, потрапляючи в різноманітні ситуації. А сила дружби та оптимізм допомагають йому привести до перемоги свою улюблену спортивну команду.

Тривалість: 01:27:13
Якість: 720p
Відео:
кодек:
розмір кадру: 1280 х 696
бітрейт: 2737 кб/с

Аудіо # 1:
мова: українська
переклад: багатоголосий закадровий
кодек: 2.0
бітрейт: 192 кб/с

Аудіо # 2:
мова: англійська
переклад: оригінал
кодек: 5.1
бітрейт: 1510 кб/с

Субтитри:
мова: англійська (звичайні, SDH)
тип: програмні (м'які)
формат: *.srt
Скріншоти
Info
D:\Everyone's Hero (2006) [ukr-TET,eng sub-eng] 720p [Hurtom].
General
Complete name : D:\Everyone's Hero (2006) [ukr-TET,eng sub-eng] 720p [Hurtom].
Format :
File size : 2.76 GiB
Duration : 1h 27mn
Overall bit rate : 4 529 Kbps
Encoded date : UTC 2014-11-23 11:13:05
Writing application : mkvmerge v5.6.0 ('Kenya Kane') built on May 27 2012 16:44:04
Writing library : libebml v1.2.3 + libmatroska v1.3.0
Video #1
ID : 1
Format : AVC
Format/Info : Advanced Video Codec
Format profile : [email protected]
Format settings, CABAC : Yes
Format settings, ReFrames : 5 frames
Muxing mode : Container [email protected]
Codec ID : V_MPEG4/ISO/AVC
Duration : 1h 27mn
Bit rate : 2 737 Kbps
Nominal bit rate : 2 830 Kbps
Width : 1 280 pixels
Height : 696 pixels
Display aspect ratio : 16:9
Frame rate : 23.976 fps
Resolution : 8 bits
Colorimetry : 4:2:0
Scan type : Progressive
Bits/(Pixel*Frame) : 0.128
Stream size : 1.67 GiB (60%)
Writing library : core 130 r2273 b3065e6
Encoding settings : cabac=1 / ref=5 / deblock=1:-3:-3 / analyse=0x3:0x113 / me=umh / subme=8 / psy=1 / psy_rd=1.00:0.00 / mixed_ref=1 / me_range=16 / chroma_me=1 / trellis=1 / 8x8dct=1 / cqm=0 / deadzone=21,11 / fast_pskip=1 / chroma_qp_offset=-2 / threads=12 / lookahead_threads=2 / sliced_threads=0 / nr=0 / decimate=1 / interlaced=0 / bluray_compat=0 / constrained_intra=0 / bframes=3 / b_pyramid=2 / b_adapt=2 / b_bias=0 / direct=3 / weightb=1 / open_gop=0 / weightp=2 / keyint=240 / keyint_min=24 / scenecut=40 / intra_refresh=0 / rc_lookahead=50 / rc=2pass / mbtree=1 / bitrate=2830 / ratetol=1.0 / qcomp=0.60 / qpmin=0 / qpmax=69 / qpstep=4 / cplxblur=20.0 / qblur=0.5 / ip_ratio=1.40 / aq=1:1.00
Audio #2
ID : 2
Format : AC-3
Format/Info : Audio Coding 3
Format_Settings_ModeExtension : CM (complete main)
Codec ID : A_AC3
Duration : 1h 27mn
Bit rate mode : Constant
Bit rate : 192 Kbps
Channel(s) : 2 channels
Channel positions : Front: L R
Sampling rate : 48.0 KHz
Stream size : 120 MiB (4%)
Title : багатоголосий закадровий (ТЕТ)
Language : Ukrainian
Audio #3
ID : 3
Format :
Format/Info : Digital Theater Systems
Codec ID : A_DTS
Duration : 1h 27mn
Bit rate mode : Constant
Bit rate : 1 510 Kbps
Channel(s) : 6 channels
Channel positions : Front: L C R, Side: L R, LFE
Sampling rate : 48.0 KHz
Resolution : 24 bits
Stream size : 942 MiB (33%)
Title : оригінал
Text #4
ID : 4
Format : UTF-8
Codec ID : S_TEXT/UTF8
Codec ID/Info : UTF-8 Plain Text
Text #5
ID : 5
Format : UTF-8
Codec ID : S_TEXT/UTF8
Codec ID/Info : UTF-8 Plain Text
Title : SDH
Подяка п.POMEO за запис звуку;
п.Bovich, п.bilenkuyboy за українізовані постери;
п.Віктор за фільмографію Вупі Ґолдберґ

Джерело:
Особиста оцінка: 7 - гарний повчальний мульт для родини


 Трекер:    Зареєстрований   

Завантажити / скачати мультфільм українською



відео для новачків



 Зареєстрований:   2014-11-25 19:58
 Розмір:   2.76 GB 
 Оцінка мультфільму:   10/10 (Голосів: 9)
   
Інші релізи
   Переможець / Everyone's Hero (2006) AVC 2xUkr/Eng | Sub Eng tarasyk98  1 / 0   1.74 GB   2015-04-09 16:38 
   Переможець / Everyone's Hero (2006) Yuric  2 / 0   700 MB   2008-10-29 20:46 
bot 
робот


З нами з: 30.09.07
Востаннє: 26.05.05
Повідомлень: 17368

2014-11-23 22:34  
Тему перенесено з Мультфільми до форуму Анонси релізів


omm

donald_spark 
Новенький


З нами з: 17.08.14
Востаннє: 16.08.17
Повідомлень: 19

2014-11-23 22:38  
ооо, походу класний мульт, щось памятаю таке)
треба подивитись)

awesomename 
Новенький


З нами з: 29.08.14
Востаннє: 20.08.17
Повідомлень: 6

2014-11-23 22:38  
"будь сильним незважаючи нінащо" -> "будь сильним, не зважаючи ні на що"
omm 
Відео Гуртом - фільмокрай
Відео Гуртом - фільмокрай


З нами з: 12.06.12
Востаннє: 19.08.17
Повідомлень: 2198

2014-11-23 22:39  
donald_spark написано:

ооо, походу класний мульт, щось памятаю таке)
треба подивитись)

так, досить кумедний. Реліз завтра

Додано через 55 секунд:

awesomename написано:
"будь сильним незважаючи нінащо" -> "будь сильним, не зважаючи ні на що"

так ото ж то, що три постера, і кожен паршивий.. Зараз взагалі певно основним оригінальний поставлю, а усі три українізовані сховаю під спойлер

bambulla 
Відео Гуртом - запис з ТБ
Відео Гуртом - запис з ТБ


З нами з: 05.06.12
Востаннє: 18.08.17
Повідомлень: 73

2014-11-24 23:38  
Зовсім забув про цей мультфільм,дякую,що нагадали.1080p буде?
omm 
Відео Гуртом - фільмокрай
Відео Гуртом - фільмокрай


З нами з: 12.06.12
Востаннє: 19.08.17
Повідомлень: 2198

2014-11-25 19:54  
bambulla
в інтернеті взагалі дефіцит ріпів цього мульта.. Не можу знайти ні блурей, ні ремукс, ні нормальних 1080р/720р ріпів - лише отакі недоріпи по 3-4 гб з бітрейтами 3-4 тис.. Навіть нормального ніде немає. Тому можете вантажити цей файл

bot 
робот


З нами з: 30.09.07
Востаннє: 26.05.05
Повідомлень: 17368

2014-11-25 19:58  
Тему перенесено з Анонси релізів до форуму Мультфільми


omm

bot 
робот


З нами з: 30.09.07
Востаннє: 26.05.05
Повідомлень: 17368

2014-11-25 19:58  
Тему перенесено з Мультфільми до форуму Мультфільми в HD


omm

kino. 
Модератор відео


З нами з: 27.06.10
Востаннє: 19.08.17
Повідомлень: 2897

2014-11-25 20:12  
Додайте звіт Info.
omm 
Відео Гуртом - фільмокрай
Відео Гуртом - фільмокрай


З нами з: 12.06.12
Востаннє: 19.08.17
Повідомлень: 2198

2014-11-25 20:14  
kino. написано:
Додайте звіт Info.

щось забув геть.. додав

Vladik05 
Новенький


З нами з: 07.09.13
Востаннє: 13.08.17
Повідомлень: 20

2014-12-13 20:28  
Дуже гарний і повчальний мультфільм раджу всім подивитися, але було б краще якби поставили срібло
Ваш часовий пояс: GMT + 2 Години

Нова тема   Відповісти