Як приборкати дракона 2 / How to Train Your Dragon 2 (2014) 360p

Нові коментарі

Нова тема   Відповісти
Останній раз роздавалося [email protected] (2021-01-19)
Автор Повідомлення
DmitryA 
Новенький


З нами з: 15.08.12
Востаннє: 05.01.21
Повідомлень: 23

2014-11-14 18:34  
Як приборкати дракона 2 / How to Train Your Dragon 2 (2014) 360p

Як приборкати дракона 2 / How to Train Your Dragon 2 (2014) 360p


Жанр: анімація, екшн, пригодницький
Країна: США



Кінокомпанія: DreamWorks Animation, Mad Hatter Entertainment
Режисер: Дін ДеБлуа
Ролі озвучують: Джей Барушель. Кейт Бланшет, Джерард Батлер, Крейґ Ферґюсон, Амеріка Феррера, Джона Гіл, Крістофер Мінц-Плассе, ТіДжей Міллер, Крістен Віґ, Джимон Гонсу

Сюжет:
З моменту примирення вікінґів і драконів минуло п'ять років. Поки Астрід, Шмаркляк та інші проводять час, змагаючись один з одним у драконячих гонках, Гикавка і Беззубик подорожують по небу, складаючи карту невідомих місць. Коли одна з їхніх пригод призводить до відкриття таємничої крижаної печери, яка є домом для сотень раніше небачених диких драконів і таємничого драконячого вершника, два друга опиняються в центрі битви за захист світу.


Тривалість: 01:41:55
Якість:
Відео:
кодек: MPEG-4 SP
розмір кадру: 640 x 272
бітрейт: 1100 кб/с

Аудіо:
мова: українська
переклад: професійний дубльований
кодек: 2.0
бітрейт: 128 кб/с
Скріншоти





Звіт Info
General
Complete name : How.To.Train.Your.Dragon.2.2014..360p.[Hurtom].m4v
Format : MPEG-4
Codec ID : M4V
File size : 893 MiB
Duration : 1h 41mn
Overall bit rate mode : Variable
Overall bit rate : 1 225 Kbps
Encoded date : UTC 2014-11-12 18:02:09
Tagged date : UTC 2014-11-12 18:02:09

Video
ID : 1
Format : MPEG-4 Visual
Format profile : [email protected]
Format settings, BVOP : No
Format settings, QPel : No
Format settings, GMC : No warppoints
Format settings, Matrix : Default (H.263)
Codec ID : 20
Duration : 1h 41mn
Bit rate mode : Variable
Bit rate : 1 095 Kbps
Maximum bit rate : 5 180 Kbps
Width : 640 pixels
Height : 272 pixels
Display aspect ratio : 2.35:1
Frame rate mode : Constant
Frame rate : 23.976 fps
Color space : YUV
Chroma subsampling : 4:2:0
Bit depth : 8 bits
Scan type : Progressive
Compression mode : Lossy
Bits/(Pixel*Frame) : 0.262
Stream size : 798 MiB (89%)
Writing library : 1.2.1 (UTC 2008-12-04)
Encoded date : UTC 2014-11-12 18:02:09
Tagged date : UTC 2014-11-12 18:02:14

Audio
ID : 2
Format :
Format/Info : Advanced Audio Codec
Format profile : LC
Codec ID : 40
Duration : 1h 41mn
Bit rate mode : Variable
Bit rate : 128 Kbps
Maximum bit rate : 135 Kbps
Channel(s) : 2 channels
Channel positions : Front: L R
Sampling rate : 48.0 KHz
Compression mode : Lossy
Stream size : 93.3 MiB (10%)
Encoded date : UTC 2014-11-12 18:02:12
Tagged date : UTC 2014-11-12 18:02:14
Джерело:
Особиста оцінка: 10 - без зайвих вагань рекомендую всім!


 Трекер:    Зареєстрований   

Завантажити / скачати торрент



відео для новачків



 Зареєстрований:   2014-11-14 18:34
 Розмір:   893 MB 
 Оцінка:   9.6/10 (Голосів: 12)
   
Інші релізи
   Як приборкати дракона 2 / How to Train Your Dragon 2 (2014) UHD Remux 2160p 4K HDR H.265 Ukr/Eng | Sub Ukr/Eng Argentum  4 / 0   28.15 GB   2019-04-06 13:16 
   Як приборкати дракона 2 / How to Train Your Dragon 2 (2014) Remux 1080p Ukr/Eng | Sub Ukr/Eng sandman  6 / 0   20.64 GB   2019-02-24 19:15 
   Як приборкати дракона 2 / How to Train Your Dragon 2 (2014) 1080p 3D [Half SideBySide] Ukr/Eng | Sub Ukr/Eng igor911  4 / 1   8.09 GB   2015-01-25 18:22 
   Як приборкати дракона 2 / How to Train Your Dragon 2 (2014) DVD9 Ліцензія Beffis  1 / 0   7.54 GB   2015-01-18 12:13 
   Як приборкати дракона 2 / How to Train Your Dragon 2 (2014) 720p-mini (60fps) Drool  1 / 0   4.1 GB   2014-10-30 13:39 
   Як приборкати дракона 2 / How to Train Your Dragon 2 (2014) 720p-mini Drool  5 / 0   2.11 GB   2014-10-23 08:15 
   Як приборкати дракона 2 / How to Train Your Dragon 2 (2014) AVC Ukr | Sub Ukr/Eng patriot2305  7 / 0   1.8 GB   2014-10-18 20:42 
   Як приборкати дракона 2 / How to Train Your Dragon 2 (2014) Ukr | Sub Ukr/Eng Gelios  15 / 0   1.45 GB   2014-10-18 18:40 
   Як приборкати дракона 2 / How to Train Your Dragon 2 (2014) 1080p Ukr/Eng | Sub Ukr/Eng 11FrYkT  19 / 0   7.72 GB   2014-10-18 17:59 
   Як приборкати дракона 2 / How to Train Your Dragon 2 (2014) 720p Ukr/Eng | Sub Ukr/Eng 11FrYkT  12 / 0   4.15 GB   2014-10-18 14:47 
   Як приборкати дракона 2 / How to Train Your Dragon 2 (2014) Blu-ray CEE Multi | Sub Multi smak2001  1 / 0   37.53 GB   2014-10-17 22:51 
bot 
робот


З нами з: 30.09.07
Востаннє: 26.05.05
Повідомлень: 26925

2014-11-14 18:34  
Тему перенесено з Мультфільми до форуму Відео для мобільних (iOS, Android, Windows Phone)


DmitryA

+380679898891 
Новенький


З нами з: 08.11.14
Востаннє: 20.11.14
Повідомлень: 1

2014-11-20 23:03  
Дуже дякую, мульт бомба і якість хороша...
Ваш часовий пояс: GMT + 2 Години

Нова тема   Відповісти