Сімейка Крудсів / The Croods (2013) 360p

Нові коментарі

Нова тема   Відповісти
Автор Повідомлення
DmitryA 
Новенький


З нами з: 15.08.12
Востаннє: 28.09.20
Повідомлень: 23

2014-11-12 17:04  
Сімейка Крудсів / The Croods (2013) 360p

Сімейка Крудсів / The Croods (2013) 360p


Жанр: анімація, фентезі, комедія, пригодницький, сімейний
Країна: США



Кінокомпанія: DreamWorks Animation
Режисер: Кірк де Мікко, Кріс Сандерс
Ролі озвучують: Емма Стоун, Раян Рейнольдс, Ніколас Кейдж, Кетрін Кінер, Клоріс Лічмен, Кларк Дюк, Кріс Сандерс

Сюжет:
Чого тільки не зробиш заради збереження сім'ї, незважаючи на те, що вона доісторична! Ось і мужній глава сімейства був твердо переконаний - головне не ніколи і нічого не змінювати і завжди жити "як під час кам'яної доби" - за своїми звичними правилами, у своїй дослідженій вздовж та впоперек печері! І може, все б так і було б, якби одного разу землетрус не порушив звичний життєвий устрій та змусив терміново шукати іншу, невідому, печеру, в незрозумілому і мінливому світі, повному страшних небезпек і різних незнайомих істот! Чи буде цій сімейці і на новому місці веселіше разом і що допоможе їй вижити та досягти заповітної мети?


Тривалість: 01:38:36
Якість:
Відео:
кодек: MPEG-4 SP
розмір кадру: 640 x 272
бітрейт: 1100 кб/с

Аудіо:
мова: українська
переклад: професійний дубльований
кодек: 2.0
бітрейт: 128 кб/с
Скріншоти





Звіт Info
General
Complete name : The.Croods.2013..360p.[Hurtom].m4v
Format : MPEG-4
Codec ID : M4V
File size : 865 MiB
Duration : 1h 38mn
Overall bit rate mode : Variable
Overall bit rate : 1 226 Kbps
Encoded date : UTC 2014-11-11 13:57:28
Tagged date : UTC 2014-11-11 13:57:28

Video
ID : 1
Format : MPEG-4 Visual
Format profile : [email protected]
Format settings, BVOP : No
Format settings, QPel : No
Format settings, GMC : No warppoints
Format settings, Matrix : Default (H.263)
Codec ID : 20
Duration : 1h 38mn
Bit rate mode : Variable
Bit rate : 1 095 Kbps
Maximum bit rate : 5 799 Kbps
Width : 640 pixels
Height : 272 pixels
Display aspect ratio : 2.35:1
Frame rate mode : Constant
Frame rate : 23.976 fps
Color space : YUV
Chroma subsampling : 4:2:0
Bit depth : 8 bits
Scan type : Progressive
Compression mode : Lossy
Bits/(Pixel*Frame) : 0.262
Stream size : 772 MiB (89%)
Writing library : 1.2.1 (UTC 2008-12-04)
Encoded date : UTC 2014-11-11 13:57:28
Tagged date : UTC 2014-11-11 13:57:33

Audio
ID : 2
Format :
Format/Info : Advanced Audio Codec
Format profile : LC
Codec ID : 40
Duration : 1h 38mn
Bit rate mode : Variable
Bit rate : 128 Kbps
Maximum bit rate : 137 Kbps
Channel(s) : 2 channels
Channel positions : Front: L R
Sampling rate : 48.0 KHz
Compression mode : Lossy
Stream size : 90.3 MiB (10%)
Encoded date : UTC 2014-11-11 13:57:31
Tagged date : UTC 2014-11-11 13:57:33
Джерело:
Особиста оцінка: 10 - без зайвих вагань рекомендую всім!


 Трекер:    Зареєстрований   

Завантажити / скачати торрент



відео для новачків



 Зареєстрований:   2014-11-12 17:04
 Розмір:   865 MB 
 Оцінка:   9.6/10 (Голосів: 22)
   
bot 
робот


З нами з: 30.09.07
Востаннє: 26.05.05
Повідомлень: 26415

2014-11-12 17:04  
Тему перенесено з Мультфільми до форуму Відео для мобільних (iOS, Android, Windows Phone)


DmitryA

Ваш часовий пояс: GMT + 2 Години

Нова тема   Відповісти