На межі майбутнього / Edge of Tomorrow (2014)

Нові коментарі

Нова тема   Відповісти
Автор Повідомлення
DmitryA 
Новенький


З нами з: 15.08.12
Востаннє: 05.01.21
Повідомлень: 23

2014-11-11 19:55  
На межі майбутнього / Edge of Tomorrow (2014)

На межі майбутнього / Edge of Tomorrow (2014)


Жанр: екшн, фантастика
Країна: США, Австралія



Кінокомпанія: Warner Bros., Village Roadshow Pictures, 3 Arts Entertainment
Режисер: Даґ Лайман
Актори: Том Круз, Емілі Блант, Брендан Ґлісон, Білл Пекстон, Джонас Армстронґ, Тоні Вей, Кік Ґаррі, Франц Драмех, Драґомир Мрсіч, Шарлотта Райлі

Сюжет:
В недалекому майбутньому раса інопланетян вторгається на Землю. Ніяка армія в світі не може протистояти їм. Майор Вільям Кейдж вмирає в бою, але трапляється неможливе - він опиняється в часовій петлі. Раз за разом він потрапляє в один і той же бій, бореться і вмирає... знову і знову. І кожний наступний бій, що повторюється, наближає його до розгадки того, як перемогти ворога.


Тривалість: 01:53:29
Якість:
Відео:
кодек: MPEG-4 SP
розмір кадру: 640 x 266
бітрейт: 1100 кб/с

Аудіо:
мова: українська
переклад: професійний дубльований
кодек: 2.0
бітрейт: 128 кб/с
Скріншоти





Звіт Info
General
Complete name : Edge.of.Tomorrow.2014.m4v
Format : MPEG-4
Codec ID : M4V
File size : 995 MiB
Duration : 1h 53mn
Overall bit rate mode : Variable
Overall bit rate : 1 226 Kbps
Encoded date : UTC 2014-11-10 16:24:30
Tagged date : UTC 2014-11-10 16:24:30

Video
ID : 1
Format : MPEG-4 Visual
Format profile : [email protected]
Format settings, BVOP : No
Format settings, QPel : No
Format settings, GMC : No warppoints
Format settings, Matrix : Default (H.263)
Codec ID : 20
Duration : 1h 53mn
Bit rate mode : Variable
Bit rate : 1 095 Kbps
Maximum bit rate : 5 388 Kbps
Width : 640 pixels
Height : 266 pixels
Display aspect ratio : 2.40:1
Frame rate mode : Constant
Frame rate : 23.976 fps
Color space : YUV
Chroma subsampling : 4:2:0
Bit depth : 8 bits
Scan type : Progressive
Compression mode : Lossy
Bits/(Pixel*Frame) : 0.268
Stream size : 889 MiB (89%)
Writing library : 1.2.1 (UTC 2008-12-04)
Encoded date : UTC 2014-11-10 16:24:30
Tagged date : UTC 2014-11-10 16:24:35

Audio
ID : 2
Format :
Format/Info : Advanced Audio Codec
Format profile : LC
Codec ID : 40
Duration : 1h 53mn
Bit rate mode : Variable
Bit rate : 128 Kbps
Maximum bit rate : 136 Kbps
Channel(s) : 2 channels
Channel positions : Front: L R
Sampling rate : 48.0 KHz
Compression mode : Lossy
Stream size : 104 MiB (10%)
Encoded date : UTC 2014-11-10 16:24:33
Tagged date : UTC 2014-11-10 16:24:35
Джерело:
Особиста оцінка: 10 - без зайвих вагань рекомендую всім!


 Трекер:    Зареєстрований   

Завантажити / скачати торрент



відео для новачків



 Зареєстрований:   2014-11-11 19:55
 Розмір:   995 MB 
 Оцінка:   9.5/10 (Голосів: 15)
   
Інші релізи
   На межі майбутнього / Edge of Tomorrow (2014) Remux 1080p Ukr/Eng | Sub Ukr/Eng MakRA  10 / 0   25.34 GB   2019-01-16 23:17 
   На межі майбутнього / Edge of Tomorrow (2014) 1080p H.265 Ukr/Eng | Sub Ukr/Eng -Star-Lord-  21 / 0   4.14 GB   2018-09-10 11:05 
   На межі майбутнього / Edge Of Tomorrow (2014) 1080p (h265) Ukr/Eng | Sub Ukr/Eng Leonb28  7 / 0   6.77 GB   2015-02-18 19:39 
   На межі майбутнього / Edge of Tomorrow (2014) 1080p 3D [Half SideBySide] Ukr/Eng | Sub Ukr/Eng GEORGKys  5 / 0   11.05 GB   2014-12-27 22:45 
   На межі майбутнього / Edge of Tomorrow (2014) DVD9 Eng/Cze/Rus/Ukr| Sub Multi yurka30  2 / 0   6.29 GB   2014-10-08 14:16 
   На межі майбутнього / Edge of Tomorrow (2014) 720p-mini (60fps) Drool  4 / 0   4.26 GB   2014-10-03 12:41 
   На межі майбутнього / Edge of Tomorrow (2014) AVC Ukr/Eng | Sub Ukr/Eng omm  31 / 0   2.69 GB   2014-09-28 17:02 
   На межі майбутнього / Edge of Tomorrow (2014) Blu-ray CEE Multi | Sub Multi smak2001  1 / 0   41.28 GB   2014-09-28 00:31 
   На межі майбутнього / Edge of Tomorrow (2014) 1080p Ukr/Eng | Sub Ukr/Eng 11FrYkT  25 / 0   10.01 GB   2014-09-27 15:41 
   На межі майбутнього / Edge of Tomorrow (2014) 720p Ukr/Eng | Sub Ukr/Eng 11FrYkT  12 / 0   4.65 GB   2014-09-27 12:36 
   На межі майбутнього / Edge of Tomorrow (2014) patriot2305  16 / 0   1.45 GB   2014-09-27 10:43 
   На межі майбутнього / Edge of Tomorrow (2014) Ukr/Eng | Sub Ukr/Eng Gelios  5 / 0   2.18 GB   2014-09-27 06:05 
bot 
робот


З нами з: 30.09.07
Востаннє: 26.05.05
Повідомлень: 26965

2014-11-11 19:59  
Тему перенесено з Фільми до форуму Відео для мобільних (iOS, Android, Windows Phone)


DmitryA

bohun 
VIP


З нами з: 21.03.09
Востаннє: 22.01.21
Повідомлень: 364

2014-11-11 20:06  
Дайош версію 144p!
Ваш часовий пояс: GMT + 2 Години

Нова тема   Відповісти