Південний Парк (Сезон 17) / South Park (Season 17) (2013) 720p 2xUkr/Eng | Sub Eng

Нові коментарі

Нова тема   Відповісти
Останній раз роздавалося Dark Invader (2021-04-17)
Автор Повідомлення
Dark Invader 
Модератор відео


З нами з: 06.01.11
Востаннє: 17.04.21
Повідомлень: 3176

2014-11-08 21:00  
Південний Парк (Сезон 17) / South Park (Season 17) (2013) 720p 2xUkr/Eng | Sub Eng

Південний Парк (Сезон 17) / South Park (Season 17) (2013) 720p 2xUkr/Eng | Sub Eng


Жанр: комедія, пародія, чорний гумор, сатира
Країна: США



Кінокомпанія: Braniff Productions, Comedy Partners / Comedy Central
Режисери: Мет Стоун і Трей Паркер
Актори: Мет Стоун, Трей Паркер, Айзек Хейз, Мері Бергман, Еліза Шнайдер, Мона Маршалл, Ейпріл Стюарт, Джон Хенсен, Дженніфер Хоуелл, Едріен Бірд

Сюжет:
Основу сюжету складають пригоди чотирьох хлопчиків і їхніх друзів, що живуть у маленькому містечку Саут-Парк, штат Колорадо. Серіал висміює проблеми американської культури і поточних світових подій, а також критикує безліч глибоких переконань і табу завдяки пародії і чорному гумору. Позиціонується як мультфільм для дорослих.
Шоу відоме своїм висвітленням поточних подій, що відбуваються в реальному світі. Робота над кожною серією ведеться в два етапи: на першому автори вигадують загальну концепцію і сюжет, а на другому — менш ніж за тиждень до прем'єрного показу — доопрацьовують деталі. Тому кожен новий випуск мультфільму залишається злободенним і наближеним до реальних подій.


Тривалість: 1 серія: ~ 22 хв. (цілком серій: 10)
Перелік серій
01. Let Go, Let Gov / Спаси і помилуй нас уряде
02. Informative Murder Porn / Пізнавальне снафф-порно
03. World War Zimmerman / Всесвітня війна Циммермана
04. Goth Kids 3: Dawn of the Posers / Діти Готи 3 - Світанок позерів
05. Taming Strange / Приборкання кицьки
06. Ginger Cow / Руда корова
07. Black Friday / Чорна п'ятниця
08. A Song of and Fire / Пісня очка та полум'я
09. Titties and Dragons / Цицьки та дракони
10. The Hobbit / Хоббіт
Якість: 720p
Відео:
кодек:
розмір кадру: 1280 х 718
бітрейт: ~ 3 000 кб/с

Аудіо # 1:
мова: українська
переклад: двоголосий закадровий
кодек: 2.0
бітрейт: 192 кб/с

Переклад і озвучення виконано:
студією "ISP Film" на замовлення телеканалу
Інформація про озвучення:
Ролі озвучили: Юрій Коваленко та Ганна Левченко.
Аудіо # 2:
мова: українська
переклад: професійний дубльований
кодек: 2.0
бітрейт: 192 кб/с

Переклад і озвучення виконано:
студією "Так Треба Продакшн" на замовлення телеканалу
Інформація про дубляж:
Ролі дублювали: Павло Лі (Картман), Олена Бліннікова (Кайл), Олександр Погребняк (Стен), Володимир Терещук, Марина Локтіонова, Наталя Поліщук, Євген Пашин, Павло Скороходько та інші.
Аудіо # 3:
мова: англійська
переклад: оригінал
кодек: 2.0
бітрейт: 128 кб/с

Субтитри:
мова: англійська
тип: програмні (м'які)
формат: *.srt

Info
General
Unique ID : 205886247333138956292227731101533974868 (0x9AE43FB719B60ADA8FE0ACD390CDB154)
Complete name : D:\Нова папка\South Park - Season 17 (2013) 720p [2xUkr.Eng, Sub Eng] [Hurtom] by Dark Invader\[17x01] Let Go, Let Gov [2xUkr.Eng, Sub Eng] 720p [Hurtom].
Format :
Format version : Version 4 / Version 2
File size : 484 MiB
Duration : 22 min
Overall bit rate : 3 052 kb/s
Encoded date : UTC 2017-07-05 13:10:55
Writing application : v11.0.0 ('Alive') 32bit
Writing library : libebml v1.3.4 + v1.4.5

Video
ID : 1
Format : AVC
Format/Info : Advanced Video Codec
Format profile : [email protected]
Format settings, CABAC : No
Format settings, ReFrames : 2 frames
Codec ID : V_MPEG4/ISO/AVC
Duration : 22 min
Bit rate : 2 536 kb/s
Width : 1 280 pixels
Height : 718 pixels
Display aspect ratio : 16:9
Frame rate mode : Constant
Frame rate : 23.976 (23976/1000) FPS
Color space : YUV
Chroma subsampling : 4:2:0
Bit depth : 8 bits
Scan type : Progressive
Bits/(Pixel*Frame) : 0.115
Stream size : 402 MiB (83%)
Language : English
Default : Yes
Forced : No
Color range : Limited
Color primaries : BT.709
Transfer characteristics : BT.709
Matrix coefficients : BT.709

Audio #1
ID : 2
Format : AC-3
Format/Info : Audio Coding 3
Mode extension : CM (complete main)
Format settings, Endianness : Big
Codec ID : A_AC3
Duration : 22 min
Bit rate mode : Constant
Bit rate : 192 kb/s
Channel(s) : 2 channels
Channel positions : Front: L R
Sampling rate : 48.0 kHz
Frame rate : 31.250 FPS (1536 spf)
Compression mode : Lossy
Stream size : 30.4 MiB (6%)
Title : QTV
Language : Ukrainian
Default : Yes
Forced : No

Audio #2
ID : 3
Format : AC-3
Format/Info : Audio Coding 3
Mode extension : CM (complete main)
Format settings, Endianness : Big
Codec ID : A_AC3
Duration : 22 min
Bit rate mode : Constant
Bit rate : 192 kb/s
Channel(s) : 2 channels
Channel positions : Front: L R
Sampling rate : 48.0 kHz
Frame rate : 31.250 FPS (1536 spf)
Compression mode : Lossy
Stream size : 30.4 MiB (6%)
Title : Так Треба Продакшн
Language : Ukrainian
Default : No
Forced : No

Audio #3
ID : 4
Format :
Format/Info : Advanced Audio Codec
Format profile : LC
Codec ID : A_AAC
Duration : 22 min
Bit rate : 129 kb/s
Channel(s) : 2 channels
Channel positions : Front: L R
Sampling rate : 48.0 kHz
Frame rate : 46.875 FPS (1024 spf)
Compression mode : Lossy
Stream size : 20.5 MiB (4%)
Title : Original
Language : English
Default : No
Forced : No

Text
ID : 5
Format : UTF-8
Codec ID : S_TEXT/UTF8
Codec ID/Info : UTF-8 Plain Text
Duration : 21 min
Bit rate : 143 b/s
Count of elements : 677
Stream size : 23.1 KiB (0%)
Title : Full
Language : English
Default : No
Forced : No
Торрент-файл оновлено (05.07.2017)
Замінено усі серії.
(Додано дубляж від "Так Треба Продакшн").


Скріншоти:


Джерело:
Особиста оцінка: 10 - без зайвих вагань рекомендую всім!

Цитата:
Подяки:
За запис доріжки №1 PuMa.ua.
За синхронізацію Dark Invader.


Бронзовий реліз (на рейтинг впливає 75% завантаженого)
 Трекер:    Зареєстрований   

Завантажити / скачати мультфільм українською



відео для новачків



 Зареєстрований:   2017-07-05 17:26
 Розмір:   5.41 GB 
 Оцінка мультсеріалу:   10/10 (Голосів: 16)
   
dionisiy78 
Частий відвідувач


З нами з: 07.10.10
Востаннє: 04.12.14
Повідомлень: 48

2014-11-10 22:56  
дякуюю, а коли інших 5 буде?
Dark Invader 
Модератор відео


З нами з: 06.01.11
Востаннє: 17.04.21
Повідомлень: 3176

2014-11-10 22:58  
dionisiy78 написано:
а коли інших 5 буде?

~ через тиждень-два.

dionisiy78 
Частий відвідувач


З нами з: 07.10.10
Востаннє: 04.12.14
Повідомлень: 48

2014-11-10 23:05  
Dark Invader 2
супер

dionisiy78 
Частий відвідувач


З нами з: 07.10.10
Востаннє: 04.12.14
Повідомлень: 48

2014-11-11 11:34  
станьте хтось на роздачу, бо не завантажує зовсім
deewhitefeer 
Новенький


З нами з: 27.07.14
Востаннє: 30.10.20
Повідомлень: 2

2014-11-20 19:19  
дуже дякую! з нетерпінням чекав цього релізу!!!
Dark Invader 
Модератор відео


З нами з: 06.01.11
Востаннє: 17.04.21
Повідомлень: 3176

2014-11-22 23:11  
Торрент-файл оновлено (22.11.2014)
Додано 6-10 серії.
Повний сезон!

-_-B_E_N_D_E_R-_- 
Забанено
Забанено


З нами з: 09.01.14
Востаннє: 22.05.18
Повідомлень: 896

2014-11-30 19:14  
Хтось щось чув про 18 сезон???
Grove_MC 
Новенький


З нами з: 15.07.13
Востаннє: 12.04.20
Повідомлень: 2

2014-12-10 22:59  
На-_-B_E_N_D_E_R-_-
Напевно, ще не куплений.

Dark Invader 
Модератор відео


З нами з: 06.01.11
Востаннє: 17.04.21
Повідомлень: 3176

2017-07-05 17:27  
Торрент-файл оновлено (05.07.2017)
Замінено усі серії.
(Додано дубляж від "Так Треба Продакшн").

Ваш часовий пояс: GMT + 2 Години

Нова тема   Відповісти