Хроніка Української Повстанської Армії 1942-1954 (2014) 720p

Нові коментарі

Нова тема   Відповісти
Автор Повідомлення
Drool 
VIP


З нами з: 17.04.10
Востаннє: 20.10.17
Повідомлень: 1402

2014-10-27 17:48  
Хроніка Української Повстанської Армії 1942-1954 (2014) 720p

Жанр: документальний, історичний
Країна: Україна

Кінокомпанія: Invert Pictures
Режисер: Тарас Химич
Оповідач: Віктор Власенко
Наукові консультанти: Іван Патриляк, Олександр Пагіря
Постановник військових реконструкцій: Володимир Правосудов
Композитор: Любомир Соломченко
Звук: Роман Микульський

Сюжет:
Документальний фільм у двох частинах розповідає про історію Української повстанської армії 1942-1954 років крізь призму свідчень тридцяти чотирьох очевидців та безпосередніх учасників подій (з понад сто опитаних). Творці стрічки пропонують подивитися на український повстанський рух з перспективи «простих людей», без пафосу, містифікацій та пропагандистських кліше. Усні історії відкривають нетрадиційний погляд на природу боротьби УПА, дають змогу відчути атмосферу та дух епохи, зануритися у вир бурхливих подій.


Тривалість: 2 x 57 хв.
Якість: 720p
Відео:
кодек:
розмір кадру: 1280x720
бітрейт: ~1400 кб/с

Аудіо:
мова: українська
переклад: оригінал
кодек: 2.0
бітрейт: 192 кб/с
Info
General
Complete name : /mnt/disk/Video/Хроніка Української повстанської армії 1942-1954/1. Хроніка Української повстанської армії 1942-1954 Частина Перша.mp4
Format : MPEG-4
Format profile : Base Media / Version 2
Codec ID : mp42
File size : 650 MiB
Duration : 57mn 0s
Overall bit rate : 1 595 Kbps
Encoded date : UTC 2014-09-28 06:20:16
Tagged date : UTC 2014-09-28 06:20:16
gsst : 0
gstd : 3420090
gssd : BD5BA7AC7HH1412324364416629
gshh : r4---sn-03guxaxjvh-3c2e.googlevideo.com

Video
ID : 1
Format : AVC
Format/Info : Advanced Video Codec
Format profile : [email protected]
Format settings, CABAC : Yes
Format settings, ReFrames : 1 frame
Codec ID : avc1
Codec ID/Info : Advanced Video Coding
Duration : 57mn 0s
Bit rate mode : Variable
Bit rate : 1 400 Kbps
Maximum bit rate : 6 492 Kbps
Width : 1 280 pixels
Height : 720 pixels
Display aspect ratio : 16:9
Frame rate mode : Constant
Frame rate : 25.000 fps
Color space : YUV
Chroma subsampling : 4:2:0
Bit depth : 8 bits
Scan type : Progressive
Bits/(Pixel*Frame) : 0.061
Stream size : 571 MiB (88%)
Tagged date : UTC 2014-09-28 06:21:25

Audio
ID : 2
Format :
Format/Info : Advanced Audio Codec
Format profile : LC
Codec ID : 40
Duration : 57mn 0s
Bit rate mode : Variable
Bit rate : 192 Kbps
Maximum bit rate : 202 Kbps
Channel(s) : 2 channels
Channel positions : Front: L R
Sampling rate : 44.1 KHz
Compression mode : Lossy
Stream size : 78.3 MiB (12%)
Title : IsoMedia File Produced by Google, 5-11-2011
Encoded date : UTC 2014-09-28 06:20:52
Tagged date : UTC 2014-09-28 06:21:25

General
Complete name : /mnt/disk/Video/Хроніка Української повстанської армії 1942-1954/2. Хроніка Української повстанської армії 1942-1954 Частина Друга.mp4
Format : MPEG-4
Format profile : Base Media / Version 2
Codec ID : mp42
File size : 659 MiB
Duration : 57mn 0s
Overall bit rate : 1 616 Kbps
Encoded date : UTC 2014-10-16 17:34:55
Tagged date : UTC 2014-10-16 17:34:55
gsst : 0
gstd : 3420090
gssd : BD4713485HH1414390735856093
gshh : r2---sn-03guxaxjvh-3c2d.googlevideo.com

Video
ID : 1
Format : AVC
Format/Info : Advanced Video Codec
Format profile : [email protected]
Format settings, CABAC : Yes
Format settings, ReFrames : 1 frame
Codec ID : avc1
Codec ID/Info : Advanced Video Coding
Duration : 57mn 0s
Bit rate mode : Variable
Bit rate : 1 421 Kbps
Maximum bit rate : 7 326 Kbps
Width : 1 280 pixels
Height : 720 pixels
Display aspect ratio : 16:9
Frame rate mode : Constant
Frame rate : 25.000 fps
Color space : YUV
Chroma subsampling : 4:2:0
Bit depth : 8 bits
Scan type : Progressive
Bits/(Pixel*Frame) : 0.062
Stream size : 580 MiB (88%)
Tagged date : UTC 2014-10-16 17:36:43

Audio
ID : 2
Format :
Format/Info : Advanced Audio Codec
Format profile : LC
Codec ID : 40
Duration : 57mn 0s
Bit rate mode : Variable
Bit rate : 192 Kbps
Maximum bit rate : 202 Kbps
Channel(s) : 2 channels
Channel positions : Front: L R
Sampling rate : 44.1 KHz
Compression mode : Lossy
Stream size : 78.3 MiB (12%)
Title : IsoMedia File Produced by Google, 5-11-2011
Encoded date : UTC 2014-10-16 17:36:06
Tagged date : UTC 2014-10-16 17:36:43
Скріншоти




Особиста оцінка: 8 - мені сподобалося


Бронзовий реліз (на рейтинг впливає 75% завантаженого)
 Трекер:    Зареєстрований   

Завантажити / скачати фільм українською



відео для новачків



 Зареєстрований:   2014-10-27 17:48
 Розмір:   1.28 GB 
 Оцінка фільму:   9.9/10 (Голосів: 25)
   
Ваш часовий пояс: GMT + 2 Години

Нова тема   Відповісти