Маленька команда / L'equip petit / The Little Team (2011) 720p Cat | sub Ukr

Нові коментарі

Нова тема   Відповісти
Автор Повідомлення
wolesj 
VIP


З нами з: 15.07.12
Востаннє: 10.12.19
Повідомлень: 698

2014-10-26 20:43  
Маленька команда / L'equip petit / The Little Team (2011) 720p Cat | sub Ukr

Маленька команда / L'equip petit / The Little Team (2011) 720p Cat | sub Ukr


Жанр: документальний, спорт, короткометражний
Країна: Іспанія



Телеканал / кіностудія: EL CANGREJO
Режисер: Рогер Гомес / Roger Gómez, Дані Ресінес / Dani Resines
Актори: Пол, Едуард, Адріа, Марті, Емма, Ніл та інші

Сюжет:
Маленькі футболісти розмірковують над своєю нещасливою долею, дорослі роблять несподівані висновки


Тривалість: 00:10:49
Якість: 720p
Відео:
кодек:
розмір кадру: 1280 x 720
бітрейт: 2 492 кб/с

Аудіо:
мова: каталанська
переклад: оригінал
кодек:
бітрейт: 156 кб/с

Субтитри:
мова: українська
тип: програмні (м'які)
формат: *.srt

Субтитри:
мова: англійська
тип: вбудовані (жорсткі)
Нагороди:
FESTIVAL INTERNACIONAL DE CORTOS DE OLAVARRÍA (Argentina) – кращий короткометражний фільм
MÈDIT - FESTIVAL DE CINEMA MEDITERRANI DE CIUTADELLA DE MENORCA (Spain) – приз глядацьких симпатій
SHIRE INTERNATIONAL SHORT FILM FESTIVAL (Australia) – кращий короткометражний фільм
OPENEYES SHORT FILM FESTIVAL (Germany) – 2-е місце серед документальних фільмів
SHORT SOUP INTERNATIONAL SHORT FILM FESTIVAL (Australia) – кращий короткометражний фільм
KUKI, INTERNATIONAL SHORT FILM FESTIVAL FOR CHILDREN AND YOUTH BERLIN (Germany) – окрема відзнака журі
FESTIVAL INTERNACIONAL DE CINE PARA NIÑOS (...Y NO TAN NIÑOS) (Mexico) – нагорода дитячого журі за кращий документальний фільм
і багато інших…
Info:
Format : MPEG-4
Format profile : Base Media
Codec ID : isom
File size : 205 MiB
Duration : 10mn 49s
Overall bit rate : 2 652 Kbps
Encoded date : UTC 2012-02-06 11:39:46
Tagged date : UTC 2012-02-07 11:39:50

Video
Format : AVC
Format/Info : Advanced Video Codec
Format profile : [email protected]
Format settings, CABAC : Yes
Format settings, ReFrames : 4 frames
Codec ID : avc1
Codec ID/Info : Advanced Video Coding
Duration : 10mn 49s
Bit rate mode : Variable
Bit rate : 2 492 Kbps
Maximum bit rate : 6 556 Kbps
Width : 1 280 pixels
Height : 720 pixels
Display aspect ratio : 16/9
Frame rate mode : Constant
Frame rate : 25.000 fps
Resolution : 24 bits
Colorimetry : 4:2:0
Scan type : Progressive
Bits/(Pixel*Frame) : 0.108
Stream size : 193 MiB (94%)
Writing library : Vimeo Encoder
Encoded date : UTC 2012-02-06 11:39:46
Tagged date : UTC 2012-02-06 11:39:49

Audio
Format :
Format/Info : Advanced Audio Codec
Format version : Version 4
Format profile : LC
Format settings, SBR : No
Codec ID : 40
Duration : 10mn 49s
Bit rate mode : Variable
Bit rate : 156 Kbps
Maximum bit rate : 235 Kbps
Channel(s) : 2 channels
Channel positions : L R
Sampling rate : 44.1 KHz
Resolution : 16 bits
Stream size : 12.1 MiB (6%)
Encoded date : UTC 2012-02-06 11:39:48
Tagged date : UTC 2012-02-06 11:39:49
Джерело: vimeo
Особиста оцінка: 10 - без зайвих вагань рекомендую всім!


Золотий реліз (завантажене не впливає на рейтинг)
 Трекер:    Зареєстрований   

Завантажити / скачати торрент



відео для новачків



 Зареєстрований:   2014-10-26 20:43
 Розмір:   205 MB 
 Оцінка:   10/10 (Голосів: 3)
   
Konfucius 
Управління
Управління


З нами з: 30.09.07
Востаннє: 11.12.19
Повідомлень: 5188

2014-10-28 16:53  
Бракує Info.

wolesj написано:
Якість:

720p

Ваш часовий пояс: GMT + 2 Години

Нова тема   Відповісти