Поштівка з 1952 / Postcard From 1952 (2012) 1080p Eng | sub Ukr

Нові коментарі

Нова тема   Відповісти
Автор Повідомлення
wolesj 
VIP


З нами з: 15.07.12
Востаннє: 13.08.20
Повідомлень: 866

2014-10-25 20:53  
Поштівка з 1952 / Postcard From 1952 (2012) 1080p Eng | sub Ukr

Поштівка з 1952 / Postcard From 1952 (2012) 1080p Eng | sub Ukr


Жанр: музичний
Країна: СШФ



Кінокомпанія: Temporary Residence Limited
Режисер: Пітер Саймонайт / Peter Simonite, Енні Ґанн / Annie Gunn
Актори: Шейла Джейкобз / Shayla Jacobs, Аннеке Свонсон / Anneke Swanson, Еллі Ліпсон / Ellie Lipson, Білл та Деббі Піллоу / Bill and Debbie Pillow та інші

Сюжет:
Найзаповітніші моменти життя під музику «Explosions in The Sky»


Тривалість: 00:06:07
Якість:
Відео:
кодек:
розмір кадру: 1920 x 1080
бітрейт: 4 510 кб/с

Аудіо:
мова: відсутня
кодек: 2.0
бітрейт: 1411 кб/с

Субтитри:
мова: українська (замість титрів)
тип: програмні (м'які)
формат: *.srt
Скріншоти
Медіаінфо:
Format : MPEG-4
Format profile : Base Media
Codec ID : isom
File size : 240 MiB
Duration : 7mn 6s
Overall bit rate : 4 730 Kbps
Encoded date : UTC 2012-05-13 20:04:14
Tagged date : UTC 2012-05-14 20:04:21

Video
Format : AVC
Format/Info : Advanced Video Codec
Format profile : [email protected]
Format settings, CABAC : Yes
Format settings, ReFrames : 4 frames
Codec ID : avc1
Codec ID/Info : Advanced Video Coding
Duration : 7mn 6s
Bit rate mode : Variable
Bit rate : 4 510 Kbps
Maximum bit rate : 18.5 Mbps
Width : 1 920 pixels
Height : 1 080 pixels
Display aspect ratio : 16/9
Frame rate mode : Constant
Frame rate : 24.000 fps
Resolution : 24 bits
Colorimetry : 4:2:0
Scan type : Progressive
Bits/(Pixel*Frame) : 0.091
Stream size : 229 MiB (95%)
Writing library : Vimeo Encoder
Encoded date : UTC 2012-05-13 20:04:14
Tagged date : UTC 2012-05-13 20:04:16

Audio
Format :
Format/Info : Advanced Audio Codec
Format version : Version 4
Format profile : LC
Format settings, SBR : No
Codec ID : 40
Duration : 7mn 6s
Bit rate mode : Variable
Bit rate : 217 Kbps
Maximum bit rate : 271 Kbps
Channel(s) : 2 channels
Channel positions : L R
Sampling rate : 44.1 KHz
Resolution : 16 bits
Stream size : 11.0 MiB (5%)
Encoded date : UTC 2012-05-13 20:04:16
Tagged date : UTC 2012-05-13 20:04:16
Джерело: vimeo
Особиста оцінка: 10 - без зайвих вагань рекомендую всім!


 Трекер:    Зареєстрований   

Завантажити / скачати фільм українською



відео для новачків



 Зареєстрований:   2014-10-25 20:53
 Розмір:   240 MB 
 Оцінка фільму:   10/10 (Голосів: 1)
   
sosothit 
Частий відвідувач


З нами з: 29.10.09
Востаннє: 07.05.20
Повідомлень: 33

2014-10-26 00:22  
explosions in the sky!!!
thx

Ваш часовий пояс: GMT + 2 Години

Нова тема   Відповісти