Зловмисники (Сезон 1, Серія 1-8) / Intruders (Season 1, episodes 1-8) (2014) 720р

Нові коментарі

Нова тема   Відповісти
Останній раз роздавалося natashelka (2020-11-28)
Автор Повідомлення
obrany 
Новенький


З нами з: 07.05.10
Востаннє: 27.11.20
Повідомлень: 24

2014-10-16 14:12  
Зловмисники (Сезон 1, Серії 1-8) / Intruders (Season 1, episodes 1-8) (2014) 720р

Зловмисники (Сезон 1, Серія 1-8) / Intruders (Season 1, episodes 1-8) (2014) 720р


Жанр: драма, кримінальний, трилер
Країна: США


Кінокомпанія / телеканал: BBC
Режисер: Даніель Штамм, Едуардо Санчес
Актори/ролі озвучують: Джон Сімм, Міра Сорвіно, Соня Саломяа, Деріл Шаттлворф, Тобі Харгрейв, Карін Коновал, Шамір Андерсон

Сюжет:
Сюжет серіалу обертається навколо таємного товариства, члени якого виявили спосіб поселятися в тілах інших людей, таким чином, отримуючи безсмертя. Джек Уейлен - людина, минуле якого покрито мороком і таємницями. Колись він працював в поліції, зараз же він живе разом зі своєю дружиною Емі. Джек хоче забути все, що з ним сталося і ігнорує помилки свого минулого. Незабаром Емі зникає і йому доводиться почати розслідування, і стає зрозуміло, що до цього якимось чином причетне таємне товариство.


Тривалість: 1 серія: 45:00 (цілком серій 8)
Перелік серій
1 Серія She Was Provisional
2 Серія And Here... You Must Listen
3 Серія Time Has Come Today
4 Серія Ave Verum Corpus
5 Серія The Shepherds and the Fox
6 Серія Bound
7 Серія The Crossing Place
8 Серія There Is No End
Якість:
Відео:
кодек:
розмір кадру: 1280x720
бітрейт: 2344 кб/с

Аудіо:
мова: українська
переклад: багатоголосий закадровий (семпл https://yadi.sk/i/bQU9QzAGc5BaN)
кодек: ACC
бітрейт: 192 кб/с

Джерело озвучення: ukropstudio

Ролі озвучують: Олексій Соловйов, Анастасія Слабик, Лілія Добривода і Іван Потапов
Автор перереклада: Семен Пеліпейченко
Робота зі звуком: Роман Мирон
Мediainfo
Format : MPEG-4
Format profile : Base Media
Codec ID : isom
File size : 791 MiB
Duration : 43mn 32s
Overall bit rate mode : Variable
Overall bit rate : 2 539 Kbps
Encoded date : UTC 2014-10-14 09:37:48
Tagged date : UTC 2014-10-14 09:37:48

Video
ID : 1
Format : AVC
Format/Info : Advanced Video Codec
Format profile : [email protected]
Format settings, CABAC : Yes
Format settings, ReFrames : 5 frames
Codec ID : avc1
Codec ID/Info : Advanced Video Coding
Duration : 43mn 31s
Bit rate : 2 344 Kbps
Maximum bit rate : 11.9 Mbps
Width : 1 280 pixels
Height : 720 pixels
Display aspect ratio : 16:9
Frame rate mode : Constant
Frame rate : 23.976 fps
Color space : YUV
Chroma subsampling : 4:2:0
Bit depth : 8 bits
Scan type : Progressive
Bits/(Pixel*Frame) : 0.106
Stream size : 730 MiB (92%)
Writing library : core 142 r2453 ea0ca51
Encoding settings : cabac=1 / ref=5 / deblock=1:0:0 / analyse=0x3:0x113 / me=umh / subme=8 / psy=1 / psy_rd=1.00:0.00 / mixed_ref=1 / me_range=16 / chroma_me=1 / trellis=1 / 8x8dct=1 / cqm=0 / deadzone=21,11 / fast_pskip=1 / chroma_qp_offset=-2 / threads=12 / lookahead_threads=2 / sliced_threads=0 / nr=0 / decimate=1 / interlaced=0 / bluray_compat=0 / constrained_intra=0 / bframes=3 / b_pyramid=2 / b_adapt=2 / b_bias=0 / direct=3 / weightb=1 / open_gop=0 / weightp=2 / keyint=250 / keyint_min=23 / scenecut=40 / intra_refresh=0 / rc_lookahead=50 / rc=crf / mbtree=1 / crf=18.0 / qcomp=0.60 / qpmin=0 / qpmax=69 / qpstep=4 / ip_ratio=1.40 / aq=1:1.00
Encoded date : UTC 2014-10-14 09:37:48
Tagged date : UTC 2014-10-14 09:38:02
Matrix coefficients : BT.709-5, BT.1361, IEC 61966-2-4 709, SMPTE RP177

Audio
ID : 2
Format :
Format/Info : Advanced Audio Codec
Format profile : LC
Codec ID : 40
Duration : 43mn 32s
Bit rate mode : Variable
Bit rate : 192 Kbps
Maximum bit rate : 200 Kbps
Channel(s) : 2 channels
Channel positions : Front: L R
Sampling rate : 48.0 KHz
Compression mode : Lossy
Stream size : 59.8 MiB (8%)
Language : Ukrainian
Encoded date : UTC 2014-10-14 09:38:00
Tagged date : UTC 2014-10-14 09:38:02
Скріншоти




Джерело: &
Особиста оцінка: 10 - без зайвих вагань рекомендую всім!


Авторський реліз (завантажувати можна без реєстрації)
 Трекер:    Зареєстрований   

Завантажити / скачати серіал українською



відео для новачків



 Зареєстрований:   2016-07-08 12:30
 Розмір:   5.89 GB 
 Оцінка серіалу:   8.5/10 (Голосів: 6)
   
radagastr 
Відео Гуртом - фільмокрай
Відео Гуртом - фільмокрай


З нами з: 05.12.08
Востаннє: 28.11.20
Повідомлень: 1077

2014-10-16 16:00  
а чи можна семпла якого. головне щоб голоси заслухати
Sando7 
Відео Гуртом - запис з ТБ
Відео Гуртом - запис з ТБ


З нами з: 04.05.09
Востаннє: 29.11.20
Повідомлень: 1568

2014-10-16 16:06  
radagastr написано:
а чи можна семпла якого. головне щоб голоси заслухати


теж прошу сепл , треба ж оцінити озвучення

obrany 
Новенький


З нами з: 07.05.10
Востаннє: 27.11.20
Повідомлень: 24

2014-10-16 16:25  
Семпл добавив https://yadi.sk/i/bQU9QzAGc5BaN
havryk 
VIP


З нами з: 29.06.10
Востаннє: 29.11.20
Повідомлень: 843

2014-10-16 18:29  
Судячи із семплу - озвучення на пристойному рівні, молодці!
radagastr 
Відео Гуртом - фільмокрай
Відео Гуртом - фільмокрай


З нами з: 05.12.08
Востаннє: 28.11.20
Повідомлень: 1077

2014-10-17 17:57  
Агов!!!! Перевірте вже хтось цей реліз

хоча взагалі його теба до Телесеріалів в ХД перекинути

bot 
робот


З нами з: 30.09.07
Востаннє: 26.05.05
Повідомлень: 26411

2014-10-18 15:20  
Тему перенесено з Телесеріали до форуму Серіали в HD


Konfucius

Konfucius 
Управління
Управління


З нами з: 30.09.07
Востаннє: 30.11.20
Повідомлень: 5214

2014-10-18 15:24  
Бракує Info.

Додано через 1 хвилину 58 секунд:

obrany написано:

Перелік серій
1 Серія

У серій є назви.

obrany 
Новенький


З нами з: 07.05.10
Востаннє: 27.11.20
Повідомлень: 24

2014-10-27 11:08  
Добавленна 2 серія!
obrany 
Новенький


З нами з: 07.05.10
Востаннє: 27.11.20
Повідомлень: 24

2014-11-04 20:48  
Добавлена 3 серія
don pedro 
Попереджень: 1
Попереджень: 1 


З нами з: 29.06.11
Востаннє: 30.11.20
Повідомлень: 18198

2014-11-04 20:58  
Типовий проект від ВВС-Америка - дешева постановка, нікому невідомі виконавці головних ролей, химерний сюжет. У випадку з "Темним дитям" це спрацювало, а тут - ні.

6/10.

Дякую за доволі якісне озвучення та наполегливу роботу над продовженням.

obrany 
Новенький


З нами з: 07.05.10
Востаннє: 27.11.20
Повідомлень: 24

2014-11-24 15:45  
Додана 4 серія
obrany 
Новенький


З нами з: 07.05.10
Востаннє: 27.11.20
Повідомлень: 24

2015-03-27 18:09  
Додана 5 серія
igor911 
Модератор відео


З нами з: 18.01.08
Востаннє: 29.11.20
Повідомлень: 15083

2015-03-27 18:18  
obrany, онови Перелік серій
obrany 
Новенький


З нами з: 07.05.10
Востаннє: 27.11.20
Повідомлень: 24

2015-06-25 14:56  
Додана 6 серія
igor911 
Модератор відео


З нами з: 18.01.08
Востаннє: 29.11.20
Повідомлень: 15083

2015-06-25 14:58  
obrany, назву теми зміни.
obrany 
Новенький


З нами з: 07.05.10
Востаннє: 27.11.20
Повідомлень: 24

2015-06-25 16:11  
igor911
Що нетак і де?

igor911 
Модератор відео


З нами з: 18.01.08
Востаннє: 29.11.20
Повідомлень: 15083

2015-06-25 16:13  
obrany, спочатку міняй номер серії в назві/шапці, оформленні, тоді пиши повідомлення "додано...серію".
obrany 
Новенький


З нами з: 07.05.10
Востаннє: 27.11.20
Повідомлень: 24

2016-02-08 15:33  
Додано 7 серію
skuline 
Свій


З нами з: 17.12.11
Востаннє: 29.11.20
Повідомлень: 121

2016-03-20 20:02  
А коли буде 8 серія?
obrany 
Новенький


З нами з: 07.05.10
Востаннє: 27.11.20
Повідомлень: 24

2016-07-08 12:31  
Додано 8 серію
GoDLiKeR20 
Свій


З нами з: 21.06.13
Востаннє: 29.11.20
Повідомлень: 97

2016-07-08 13:00  
Класний серіал, 9/10, дууже жаль шо немає продовження...
Hako 
Свій


З нами з: 01.02.12
Востаннє: 29.11.20
Повідомлень: 63

2018-02-04 17:22  
Ідея фільму загалом непогана, навіть чудова. Але не вистачає цьому фільму чогось такого незначного, щоб зробити його справді класним. Нуднуватий він. Тому й нема продовження.
Чесно кажучи дивився я його тільки тому, що роль "Медісон" виконувала маленька Моллі Боббі Браун. Тільки вона мене тут порадувала.
Чекаю не дочекаюсь коли побачу її в повнометражному кіно Годзіла 2 (2019)

Ваш часовий пояс: GMT + 2 Години

Нова тема   Відповісти