Вніде / Neverwhere (серія 1,2) (1996) Eng | sub Ukr

Нові коментарі

Нова тема   Відповісти
Останній раз роздавалося Час_настал (2017-08-20)
Автор Повідомлення
Час_настал 
VIP


З нами з: 01.07.10
Востаннє: 19.08.17
Повідомлень: 297

2014-10-15 11:01  
Вніде / Neverwhere (серія 1,2) (1996) Eng | sub Ukr

Вніде / Neverwhere (серія 1,2) (1996) Eng | sub Ukr


Жанр: міське фентезі
Країна: Велика Британія



Кінокомпанія: BBC
Режисер: Нейл Ґейман, Ленні Генрі
Актори: Ґарі Бейквелл, Лора Фрейзер, Гівел Беннетт, Клів Расселл, Патерсон Джозеф, Тревор Пікок та інші.

Сюжет:
Старий добрий Лондон... Але якщо ви просто допомогли іншій людині, то чи лишиться цей Лондон таким же старим і добрим для вас...

P.S. Субтитри власного виробництва, якщо хтось забажає підтримати перекладача фінансово, то пишіть у приват.
Перелік серій

С01_Е01_Двері
С01_Е02_Найтсбрідж
Медіа інфо
Neverwhere.Part1of6.Door...avi
Format : AVI
Format/Info : Audio Video Interleave
File size : 350 MiB
Duration : 29mn 14s
Overall bit rate : 1 672 Kbps
Writing application : VirtualDubMod 1.5.4.1 (build 2178/release)
Writing library : VirtualDubMod build 2178/release

Video
ID : 0
Format : MPEG-4 Visual
Format profile : Advanced [email protected]
Format settings, BVOP : 1
Format settings, QPel : No
Format settings, GMC : No warppoints
Format settings, Matrix : Default (H.263)
Muxing mode : Packed bitstream
Codec ID :
Codec ID/Hint :
Duration : 29mn 14s
Bit rate : 1 473 Kbps
Width : 720 pixels
Height : 544 pixels
Display aspect ratio : 4:3
Frame rate : 25.000 fps
Color space : YUV
Chroma subsampling : 4:2:0
Bit depth : 8 bits
Scan type : Progressive
Compression mode : Lossy
Bits/(Pixel*Frame) : 0.150
Stream size : 308 MiB (88%)
Writing library : 1.2.0.dev47 (UTC 2006-11-01)

Audio
ID : 1
Format : AC-3
Format/Info : Audio Coding 3
Mode extension : CM (complete main)
Format settings, Endianness : Big
Codec ID : 2000
Duration : 29mn 13s
Bit rate mode : Constant
Bit rate : 192 Kbps
Channel(s) : 2 channels
Channel positions : Front: L R
Sampling rate : 48.0 KHz
Bit depth : 16 bits
Compression mode : Lossy
Stream size : 40.1 MiB (11%)
Alignment : Split accross interleaves
Interleave, duration : 80 ms (2.00 video frames)
Interleave, preload duration : 500 ms
Language : English
Тривалість: 00:30:00
Якість:
Відео:
кодек:
розмір кадру: 720 х 544
бітрейт: 1444 кб/с

Аудіо:
мова: англійська
переклад: оригінал
кодек: 5.1
бітрейт: 187 кб/с

Субтитри:
мова: українська
тип: програмні (м'які)
формат: *.srt
Скріншоти


Джерело:
Особиста оцінка: 10 - без зайвих вагань рекомендую всім!


Золотий реліз (завантажене не впливає на рейтинг)
 Трекер:    Зареєстрований   

Завантажити / скачати серіал українською



відео для новачків



 Зареєстрований:   2014-10-15 11:01
 Розмір:   700 MB 
 Оцінка серіалу:   7.3/10 (Голосів: 3)
   
Сонцеслав 
VIP


З нами з: 26.01.11
Востаннє: 19.08.17
Повідомлень: 413

2014-10-15 22:22  
Про що цей фільм?
Час_настал 
VIP


З нами з: 01.07.10
Востаннє: 19.08.17
Повідомлень: 297

2014-10-16 10:28  
Це фентезі на тему Лондона. Звичайний працівник одного з офісів Лондону допомагає незнайомці на вулиці і виявляє для себе зовсім інший бік свого рідного міста, зовсім інший таємничий світ...
Ваш часовий пояс: GMT + 2 Години

Нова тема   Відповісти