Дивовижні пустелі Намібії / Wild Namibia / Namibia's desert kingdom / Namibia - Flüsse aus Sand (2013) 720p Eng | sub Ukr

Нові коментарі

Нова тема   Відповісти
Автор Повідомлення
wolesj 
VIP


З нами з: 15.07.12
Востаннє: 17.08.17
Повідомлень: 454

2014-10-11 21:54  
Дивовижні пустелі Намібії / Wild Namibia / Namibia's desert kingdom / Namibia - Flüsse aus Sand (2013) 720p Eng | sub Ukr

Дивовижні пустелі Намібії / Wild Namibia / Namibia's desert kingdom / Namibia - Flüsse aus Sand (2013) 720p Eng | sub Ukr




Жанр: документальний
Країна: Велика Британія, Німеччина

Телеканал / кіностудія: A Mike Birkhead Associates Production, Terra Mater Factual Studios
Режисер: Мартин Колбек (Martyn Colbeck), Майк Біркхед (Mike Birkhead)
Актори: тварини

Сюжет:
Захоплююча розповідь про те, як найбільші тварини нашої планети виживають в найстарішій і найсуворішій пустелі на землі.


Тривалість: 00:43:57
Якість:
Відео:
кодек:
розмір кадру: 1280x720
бітрейт: 3 035 кб/с

Аудіо:
мова: англійська
переклад: оригінал
кодек: 2.0
бітрейт: 160 кб/с

Субтитри:
мова: українська (власний переклад)
тип: програмні (м'які)
формат: *.srt
Скріншоти:



Info:

Format : MPEG-4
Format profile : Base Media
Codec ID : isom
File size : 1 006 MiB
Duration : 43mn 57s
Overall bit rate : 3 200 Kbps
Encoded date : UTC 2014-09-30 22:29:44
Tagged date : UTC 2014-09-30 22:29:44
Writing application : Lavf51.12.1

Video
Format : AVC
Format/Info : Advanced Video Codec
Format profile : [email protected]
Format settings, CABAC : No
Format settings, ReFrames : 1 frame
Codec ID : avc1
Codec ID/Info : Advanced Video Coding
Duration : 43mn 57s
Bit rate mode : Variable
Bit rate : 3 035 Kbps
Width : 1 280 pixels
Height : 720 pixels
Display aspect ratio : 16/9
Frame rate mode : Variable
Frame rate : 25.000 fps
Resolution : 24 bits
Colorimetry : 4:2:0
Scan type : Progressive
Bits/(Pixel*Frame) : 0.132
Stream size : 954 MiB (95%)
Language : English
Encoded date : UTC 2014-09-30 22:29:44
Tagged date : UTC 2014-09-30 22:29:44

Audio
Format :
Format/Info : Advanced Audio Codec
Format version : Version 4
Format profile : LC
Format settings, SBR : No
Codec ID : 40
Duration : 43mn 57s
Bit rate mode : Variable
Bit rate : 160 Kbps
Channel(s) : 2 channels
Channel positions : L R
Sampling rate : 48.0 KHz
Resolution : 16 bits
Stream size : 50.3 MiB (5%)
Encoded date : UTC 2014-09-30 22:29:44
Tagged date : UTC 2014-09-30 22:29:44
Джерело: The Pirate Bay
Особиста оцінка: 10 - без зайвих вагань рекомендую всім!


Золотий реліз (завантажене не впливає на рейтинг)
 Трекер:    Зареєстрований   

Завантажити / скачати фільм українською



відео для новачків



 Зареєстрований:   2014-10-11 21:54
 Розмір:   1006 MB 
 Оцінка фільму:   10/10 (Голосів: 5)
   
igor911 
Відео Гуртом
Відео Гуртом


З нами з: 18.01.08
Востаннє: 18.08.17
Повідомлень: 7276

2014-10-12 15:51  
Додай IMDB:
IMDB
Код:
[url=http://www.imdb.com/title/tt3236610/][img]http://hurtom.com/imdb/tt3236610.png[/img][/url]
Додано через 3 хвилини 28 секунд:

Також поправ MediаInfo, щоб у ньому було видно параметри аудіо.

Ваш часовий пояс: GMT + 2 Години

Нова тема   Відповісти