Завантажити та скачати торренти українською


Мене звуть Ніхто / My Name is Nobody / Il mio nome è Nessuno (1973) 720p Ukr/Eng | Sub Eng

Нові коментарі

Нова тема   Відповісти
Автор Повідомлення
Anonymous 







2014-10-10 10:15  
Мене звуть Ніхто / My Name is Nobody / Il mio nome è Nessuno (1973) 720p Ukr/Eng |Sub Eng


Ще постери





Жанр: вестерн, комедія
Країна: Італія, Франція, Німеччина



Кінокомпанія: Rafran Cinematografica, Les Films Jacques Leitienne, Imp.Ex.Ci.
Автор ідеї: Серджіо Леоне / Sergio Leone
Режисер: Тоніно Валеріі / Tonino Valerii
Композитор: Енніо Морріконе / Ennio Morricone
Актори: Теренс Гілл / Terence Hill, Генрі Фонда / Henry Fonda, Джин Мартін / Jean Martin, Карл Браун / Karl Braun та інші

Сюжет:
Молодий і не в міру енергійний ковбой (Теренс Гілл) намагається умовити старого, втомленого ковбоя (Генрі Фонда) піти на останню справу - (!) Розібратися з бандою «Дика Купа», у складі якої «всього-на-всього» 150 чоловік.


Рейтинг MPAA: PG - рекомендується присутність батьків
Вікова категорія: 12+

Тривалість: 01:55:36
Якість: 720p
Відео:
кодек:
розмір кадру: 1280x546
бітрейт: 12276 кбіт/с [crf=18]
джерело:Il mio nome è Nessuno 1973 Blu-ray *ITA* 1080p VC-1 -HD 5.1
автор ріпу: CtrlHD

Аудіо # 1:
мова: українська
переклад: двоголосий закадровий - Студія 1+1
ролі озвучили: Олександр Завальський і Ніна Касторф
кодек: 2.0
бітрейт: 192 кбіт/с
примітка від robotron005: По телеканалу "Гамма" транслювали з ідентичною озвучкою

Аудіо # 2:
мова: англійська
переклад: оригінал
кодек: 2.0
бітрейт: 192 кбіт/с

Субтитри:
мова: англійська
тип: програмні (м'які)
формат: *.srt

Збережено оригінальні розділи, як на Blu-ray.
Info
Код:
General
Unique ID                                : 184964714334752739334376714831274228871 (0x8B26E87FBEB48CB8AFAF5AB8D010BC87)
Complete name                            : Il mio nome e Nessuno (1973) [Ukr,Eng sub.Eng] 720p [Hurtom & HDClub].
Format                                   :
Format version                           : Version 4 / Version 2
File size                                : 10.2 GiB
Duration                                 : 1h 55mn
Overall bit rate                         : 12.6 Mbps
Movie name                               : Мене звуть Ніхто / My Name is Nobody / Il mio nome è Nessuno (1973) 720p [Hurtom & HDClub]
Encoded date                             : UTC 2014-10-09 17:09:08
Writing application                      : mkvmerge v7.2.0 ('On Every Street') 64bit built on Sep 13 2014 15:52:10
Writing library                          : libebml v1.3.0 + libmatroska v1.4.1
DURATION                                 : 01:50:44.874000000
NUMBER_OF_FRAMES                         : 660
NUMBER_OF_BYTES                          : 23714
_STATISTICS_WRITING_APP                  : mkvmerge v7.2.0 ('On Every Street') 64bit built on Sep 13 2014 15:52:10
_STATISTICS_WRITING_DATE_UTC             : 2014-10-09 17:09:08
_STATISTICS_TAGS                         : BPS DURATION NUMBER_OF_FRAMES NUMBER_OF_BYTES

Video
ID                                       : 1
Format                                   : AVC
Format/Info                              : Advanced Video Codec
Format profile                           : High@L4.1
Format settings, CABAC                   : Yes
Format settings, ReFrames                : 11 frames
Codec ID                                 : V_MPEG4/ISO/AVC
Duration                                 : 1h 55mn
Bit rate                                 : 12.0 Mbps
Width                                    : 1 280 pixels
Height                                   : 546 pixels
Display aspect ratio                     : 2.35:1
Frame rate mode                          : Constant
Frame rate                               : 23.976 fps
Color space                              : YUV
Chroma subsampling                       : 4:2:0
Bit depth                                : 8 bits
Scan type                                : Progressive
Bits/(Pixel*Frame)                       : 0.717
Stream size                              : 9.72 GiB (95%)
Title                                    : Мене звуть Ніхто / My Name is Nobody / Il mio nome è Nessuno / Меня зовут Никто (1973) 720p [CtrlHD]
Writing library                          : core 128 r2216kMod 198a7ea
Encoding settings                        : cabac=1 / ref=11 / deblock=1:-3:-3 / analyse=0x3:0x113 / me=umh / subme=9 / psy=1 / fade_compensate=0.00 / psy_rd=1.20:0.00 / mixed_ref=1 / me_range=16 / chroma_me=1 / trellis=2 / 8x8dct=1 / cqm=0 / deadzone=21,11 / fast_pskip=0 / chroma_qp_offset=-2 / threads=6 / lookahead_threads=1 / sliced_threads=0 / nr=0 / decimate=0 / interlaced=0 / bluray_compat=0 / constrained_intra=0 / bframes=8 / b_pyramid=2 / b_adapt=2 / b_bias=0 / direct=3 / weightb=1 / open_gop=0 / weightp=2 / keyint=250 / keyint_min=23 / scenecut=40 / intra_refresh=0 / rc=crf / mbtree=0 / crf=18.0000 / qcomp=0.70 / qpmin=0 / qpmax=69 / qpstep=4 / ip_ratio=1.30 / pb_ratio=1.20 / aq=2:0.85
Language                                 : English
Default                                  : Yes
Forced                                   : No
DURATION                                 : 01:55:50.110000000
NUMBER_OF_FRAMES                         : 166636
NUMBER_OF_BYTES                          : 10654374163
_STATISTICS_WRITING_APP                  : mkvmerge v7.2.0 ('On Every Street') 64bit built on Sep 13 2014 15:52:10
_STATISTICS_WRITING_DATE_UTC             : 2014-10-09 17:09:08
_STATISTICS_TAGS                         : BPS DURATION NUMBER_OF_FRAMES NUMBER_OF_BYTES

Audio #1
ID                                       : 2
Format                                   : AC-3
Format/Info                              : Audio Coding 3
Mode extension                           : CM (complete main)
Format settings, Endianness              : Big
Codec ID                                 : A_AC3
Duration                                 : 1h 55mn
Bit rate mode                            : Constant
Bit rate                                 : 192 Kbps
Channel(s)                               : 2 channels
Channel positions                        : Front: L R
Sampling rate                            : 48.0 KHz
Bit depth                                : 16 bits
Compression mode                         : Lossy
Stream size                              : 159 MiB (2%)
Title                                    : DVO [2+2] 2.0 192 kbps [Hurtom-robotron005]
Language                                 : Ukrainian
Default                                  : Yes
Forced                                   : No

Audio #2
ID                                       : 3
Format                                   : AC-3
Format/Info                              : Audio Coding 3
Mode extension                           : CM (complete main)
Format settings, Endianness              : Big
Codec ID                                 : A_AC3
Duration                                 : 1h 55mn
Bit rate mode                            : Constant
Bit rate                                 : 192 Kbps
Channel(s)                               : 2 channels
Channel positions                        : Front: L R
Sampling rate                            : 48.0 KHz
Bit depth                                : 16 bits
Compression mode                         : Lossy
Stream size                              : 159 MiB (2%)
Title                                    : Original 2.0 192 kbps
Language                                 : English
Default                                  : No
Forced                                   : No

Text
ID                                       : 4
Format                                   : UTF-8
Codec ID                                 : S_TEXT/UTF8
Codec ID/Info                            : UTF-8 Plain Text
Language                                 : English
Default                                  : No
Forced                                   : No

Menu
00:00:00.000                             : en:Chapter 1
00:11:20.305                             : en:Chapter 2
00:19:29.168                             : en:Chapter 3
00:29:45.242                             : en:Chapter 4
00:40:23.087                             : en:Chapter 5
00:44:47.101                             : en:Chapter 6
00:56:54.870                             : en:Chapter 7
01:04:16.644                             : en:Chapter 8
01:08:27.562                             : en:Chapter 9
01:11:25.364                             : en:Chapter 10
01:20:20.983                             : en:Chapter 11
01:26:41.530                             : en:Chapter 12
01:31:33.321                             : en:Chapter 13
01:35:44.280                             : en:Chapter 14
01:48:27.584                             : en:Chapter 15
01:54:33.992                             : en:Chapter 16




Джерела та подяки: &
ріп відео, оригінальні звук та субтитри - CtrlHD (HDbits), madoff (HDClub); українська доріжка - robotron005 - зведення, MAKAPOHHIK - запис з ТБ; українізований постер - Пан_Олександр (всі - Гуртом).


ЗАЛИШАЙТЕСЬ ЯКОМОГА ДОВШЕ НА РОЗДАЧІ!

СКАЧАВ САМ - ДАЙ СКАЧАТИ ІНШИМ


Срібний реліз (на рейтинг впливає 50% завантаженого)
 Трекер:    Зареєстрований   

Завантажити / скачати фільм українською



відео для новачків



 Зареєстрований:   2014-10-10 10:15
 Розмір:   10.24 GB 
 Оцінка фільму:   4.5/10 (Голосів: 17)
   
Інші релізи
Косячок справжній 
VIP


З нами з: 29.02.12
Востаннє: 20.02.17
Повідомлень: 739

2015-05-24 12:21  
Гарне кіно.
BaskaBatka 
Новенький


З нами з: 23.11.14
Востаннє: 28.07.15
Повідомлень: 6

2015-06-14 18:05  
Чому такі хороші фільми невідомі загалу? Хлопці, що зробили переклад... Молодці.
Ваш часовий пояс: GMT + 2 Години

Нова тема   Відповісти