З днем народження, Тіммі / Happy Birthday Timmy (2010) 720p

Нові коментарі

Нова тема   Відповісти
Автор Повідомлення
ostipko 
Відео Гуртом - підтримка та поширення
Відео Гуртом - підтримка та поширення


З нами з: 23.02.12
Востаннє: 16.10.17
Повідомлень: 675

2014-10-08 23:06  
З днем народження, Тіммі / Happy Birthday Timmy (2010) 720p

З днем народження, Тіммі / Happy Birthday Timmy (2010) 720p


Жанр: комедія
Країна: Ірландія

Режисер: Джонні Каллен
Актори: Ліам МакЕвой/ Liam McEvoy, Пол Нолан / Paul Nolan, Гізер Намберґ / Heather Numberg, Кара Ферон / Cara Fearon

Сюжет:
Що варто/не варто дарувати синові на день народження.


Тривалість: 00:02:44
Якість:
Відео:
кодек:
розмір кадру: 1 280 х 720
бітрейт: 3 256 кб/с

Аудіо:
мова: українська
переклад: одноголосий закадровий
кодек: MP3
бітрейт: 192 кб/с
МедіаІнфо
General
Complete name : D:\Завантаження\Озвучене\Happy birthday Timmy (2010) ukr.avi
Format : AVI
Format/Info : Audio Video Interleave
File size : 69.0 MiB
Duration : 2mn 44s
Overall bit rate : 3 523 Kbps
Writing application : Lavf52.93.0

Video
ID : 0
Format :
Codec ID :
Duration : 2mn 44s
Bit rate : 3 256 Kbps
Width : 1 280 pixels
Height : 720 pixels
Display aspect ratio : 16:9
Frame rate : 25.000 fps
Bits/(Pixel*Frame) : 0.141
Stream size : 63.7 MiB (92%)

Audio
ID : 1
Format : MPEG Audio
Format version : Version 1
Format profile : Layer 3
Mode : Joint stereo
Codec ID : 55
Codec ID/Hint : MP3
Duration : 2mn 44s
Bit rate mode : Constant
Bit rate : 256 Kbps
Channel(s) : 2 channels
Sampling rate : 44.1 KHz
Compression mode : Lossy
Stream size : 5.01 MiB (7%)
Alignment : Aligned on interleaves
Interleave, duration : 26 ms (0.65 video frame)
Interleave, preload duration : 52 ms
Writing library : LAME3.98.4
Скріншоти



Джерело:
Особиста оцінка: 10 - без зайвих вагань рекомендую всім!


Авторський реліз (завантажувати можна без реєстрації)
 Трекер:    Зареєстрований   

Завантажити / скачати фільм українською



відео для новачків



 Зареєстрований:   2014-10-08 23:06
 Розмір:   69 MB 
 Оцінка фільму:   10/10 (Голосів: 4)
 Happy birthday Timmy (2010) ukr
   
Konfucius 
Управління
Управління


З нами з: 30.09.07
Востаннє: 21.10.17
Повідомлень: 4981

2014-10-11 16:44  
ostipko написано:

Скріншоти
додам 10.10.2014

waloha 
VIP


З нами з: 29.12.09
Востаннє: 21.10.17
Повідомлень: 324

2015-01-10 21:21  
Єєєєє, тепер буде який кинути ролик друзям на сторіну в день народження !!! Happy
Sllavko 
Свій


З нами з: 10.06.12
Востаннє: 12.10.17
Повідомлень: 93

2017-01-29 20:14  
три місяці не можу завантажити. хоч і періодично є один сідер.
havryk 
VIP


З нами з: 29.06.10
Востаннє: 21.10.17
Повідомлень: 650

2017-01-29 22:41  
Sllavko написано:
три місяці не можу завантажити. хоч і періодично є один сідер.

Дивно, поставив на завантаження і через 3 хвилини роздали.

Ваш часовий пояс: GMT + 2 Години

Нова тема   Відповісти