The Hardkiss - The Hardkiss (promo CD) (2014) [FLAC] | Electrorock / Pop-Rock

Нові коментарі

Нова тема   Відповісти
Автор Повідомлення
ninenine 
Відео Гуртом - фільмокрай
Відео Гуртом - фільмокрай


З нами з: 23.10.09
Востаннє: 21.08.17
Повідомлень: 1151

2014-10-01 21:48  
The Hardkiss - The Hardkiss (promo CD) (2014) [FLAC] | Electrorock / Pop-Rock

The Hardkiss - The Hardkiss (promo CD) (2014) [FLAC] | Electrorock / Pop-Rock


Стиль: Progressive Pop
Країна, місто: Україна, Київ
Сайти: Офіційний сайт
Видавець: The Hardkiss
Виконавці:
Юлія Саніна - вокал, автор текстів і музики
Валерій «Val» Бебко - бас-гітарист, музичний продюсер
Поль Солонар - клавішник (покинув гурт)
Kreechy - барабанщик
Роман Скоробагатько - бас-гітарист
Віталій Онискевич - клавішник
Пісні:
    1. Make-Up
    2. Shadows Of Time
    3. October
    4. Under The Sun
    5. Stones
    6. Part Of Me
    7. Dance With Me
    8. In Love

Тривалість: 00:28:17
Мова: англійська
Аудіо-кодек: FLAC
Бітрейт: 881-1065 кб/с
Джерело: Файлообмінні сайти
Про гурт:
The Hardkiss - український англомовний музичний гурт, який з’явився 2011 року і миттєво здобув славу. Усього за тиждень після презентації дебютного кліпу на пісню «Babylon» у Youtube, відео здобуло тисячі переглядів, а також стало сенсацією у соціальних мережах. А вже через місяць The Hardkiss випустили кліпи на два інші сингли - October та Dance With Me. Гурт працює на рівні найкращих західних музичних проектів.

Номінанти MTV Europe Music Awards 2012 в категорії " Найкращий український артист " , володарі Премії Yuna в категоріяx "Відкриття року" і "Кращий кліп року ", таємні гості Премії МузТВ - 2013 " Перезавантаження" та інші нагороди вже в арсеналі команди.

Про The Hardkiss писали музичні оглядачі NY Times і популярного англійського NME. Знаменитий американський фотограф і режисер Marco Ovando згадував про українську команду у своєму блозі.

The Hardkiss виступали на одній сцені з такими артистами і командами , як Hurts , Solange Knowles , Sonique , Oliver Koletzki та ін. Давала закриті концерти для многіx брендів , як в Україні , так і в Росії , а також в країнах СНД.
Звіт EAC:
Exact Audio Copy V1.0 beta 3 from 29. August 2011
EAC extraction logfile from 20. September 2014, 3:37
The Hardkiss / The Hardkiss (promo CD)
Used drive : TSSTcorpCDDVDW TS-L633F Adapter: 0 ID: 1
Read mode : Secure
Utilize accurate stream : Yes
Defeat audio cache : Yes
Make use of C2 pointers : No
Read offset correction : 6
Overread into Lead-In and Lead-Out : No
Fill up missing offset samples with silence : Yes
Delete leading and trailing silent blocks : No
Null samples used in CRC calculations : Yes
Used interface : Native Win32 interface for Win NT & 2000
Gap handling : Appended to previous track
Used output format : User Defined Encoder
Selected bitrate : 1024 kBit/s
Quality : High
Add ID3 tag : No
Command line compressor : C:\Program Files\FLAC\flac.exe
Additional command line options : -V -8 -T "Date=%year%" -T "Genre=%genre%" %source%
TOC of the extracted CD
Track | Start | Length | Start sector | End sector
---------------------------------------------------------
1 | 0:00.00 | 3:02.45 | 0 | 13694
2 | 3:02.45 | 4:16.31 | 13695 | 32925
3 | 7:19.01 | 3:41.64 | 32926 | 49564
4 | 11:00.65 | 3:40.50 | 49565 | 66114
5 | 14:41.40 | 3:49.55 | 66115 | 83344
6 | 18:31.20 | 3:39.59 | 83345 | 99828
7 | 22:11.04 | 2:56.35 | 99829 | 113063
8 | 25:07.39 | 3:08.50 | 113064 | 127213
Track 1
Filename D:\VibroDog\The Hardkiss - 2014 - The Hardkiss (promo CD) [(P) & (C) The Hardkiss] FLAC-tracks-CUE-LOG-scans\01 Make-Up.wav
Pre-gap length 0:00:02.00
Peak level 100.0 %
Extraction speed 1.2 X
Track quality 99.9 %
Test CRC D00EE95A
Copy CRC D00EE95A
Track not present in AccurateRip database
Copy OK
Track 2
Filename D:\VibroDog\The Hardkiss - 2014 - The Hardkiss (promo CD) [(P) & (C) The Hardkiss] FLAC-tracks-CUE-LOG-scans\02 Shadows Of Time.wav
Pre-gap length 0:00:02.00
Peak level 95.5 %
Extraction speed 1.9 X
Track quality 100.0 %
Test CRC 957E1090
Copy CRC 957E1090
Track not present in AccurateRip database
Copy OK
Track 3
Filename D:\VibroDog\The Hardkiss - 2014 - The Hardkiss (promo CD) [(P) & (C) The Hardkiss] FLAC-tracks-CUE-LOG-scans\03 October.wav
Pre-gap length 0:00:02.00
Peak level 100.0 %
Extraction speed 2.0 X
Track quality 100.0 %
Test CRC 59143F0B
Copy CRC 59143F0B
Track not present in AccurateRip database
Copy OK
Track 4
Filename D:\VibroDog\The Hardkiss - 2014 - The Hardkiss (promo CD) [(P) & (C) The Hardkiss] FLAC-tracks-CUE-LOG-scans\04 Under The Sun.wav
Pre-gap length 0:00:02.00
Peak level 100.0 %
Extraction speed 2.2 X
Track quality 100.0 %
Test CRC 48828DE2
Copy CRC 48828DE2
Track not present in AccurateRip database
Copy OK
Track 5
Filename D:\VibroDog\The Hardkiss - 2014 - The Hardkiss (promo CD) [(P) & (C) The Hardkiss] FLAC-tracks-CUE-LOG-scans\05 Stones.wav
Pre-gap length 0:00:02.00
Peak level 100.0 %
Extraction speed 1.8 X
Track quality 99.9 %
Test CRC 6FD32D8A
Copy CRC 6FD32D8A
Track not present in AccurateRip database
Copy OK
Track 6
Filename D:\VibroDog\The Hardkiss - 2014 - The Hardkiss (promo CD) [(P) & (C) The Hardkiss] FLAC-tracks-CUE-LOG-scans\06 Part Of Me.wav
Pre-gap length 0:00:02.00
Peak level 100.0 %
Extraction speed 1.8 X
Track quality 99.9 %
Test CRC 8A7550A0
Copy CRC 8A7550A0
Track not present in AccurateRip database
Copy OK
Track 7
Filename D:\VibroDog\The Hardkiss - 2014 - The Hardkiss (promo CD) [(P) & (C) The Hardkiss] FLAC-tracks-CUE-LOG-scans\07 Dance With Me.wav
Pre-gap length 0:00:02.00
Peak level 100.0 %
Extraction speed 2.5 X
Track quality 100.0 %
Test CRC 5D331F12
Copy CRC 5D331F12
Track not present in AccurateRip database
Copy OK
Track 8
Filename D:\VibroDog\The Hardkiss - 2014 - The Hardkiss (promo CD) [(P) & (C) The Hardkiss] FLAC-tracks-CUE-LOG-scans\08 In Love.wav
Pre-gap length 0:00:02.00
Peak level 100.0 %
Extraction speed 2.6 X
Track quality 100.0 %
Test CRC 4741B193
Copy CRC 4741B193
Track not present in AccurateRip database
Copy OK
None of the tracks are present in the AccurateRip database
No errors occurred
End of status report
==== Log checksum C83ACC2CAEED66C26EC82DD354D180C31A06C12D2E60388D2D3579E813A1A96E ====
Індексна катра (.CUE):
REM GENRE House
REM DATE 2014
REM DISCID 5806A008
REM COMMENT "ExactAudioCopy v1.0b3"
PERFORMER "The Hardkiss"
TITLE "The Hardkiss (promo CD)"
FILE "01 Make-Up.wav" WAVE
TRACK 01 AUDIO
TITLE "Make-Up"
PERFORMER "The Hardkiss"
INDEX 01 00:00:00
TRACK 02 AUDIO
TITLE "Shadows Of Time"
PERFORMER "The Hardkiss"
INDEX 00 03:00:45
FILE "02 Shadows Of Time.wav" WAVE
INDEX 01 00:00:00
TRACK 03 AUDIO
TITLE "October"
PERFORMER "The Hardkiss"
INDEX 00 04:14:31
FILE "03 October.wav" WAVE
INDEX 01 00:00:00
TRACK 04 AUDIO
TITLE "Under The Sun"
PERFORMER "The Hardkiss"
INDEX 00 03:39:64
FILE "04 Under The Sun.wav" WAVE
INDEX 01 00:00:00
TRACK 05 AUDIO
TITLE "Stones"
PERFORMER "The Hardkiss"
INDEX 00 03:38:50
FILE "05 Stones.wav" WAVE
INDEX 01 00:00:00
TRACK 06 AUDIO
TITLE "Part Of Me"
PERFORMER "The Hardkiss"
INDEX 00 03:47:55
FILE "06 Part Of Me.wav" WAVE
INDEX 01 00:00:00
TRACK 07 AUDIO
TITLE "Dance With Me"
PERFORMER "The Hardkiss"
INDEX 00 03:37:59
FILE "07 Dance With Me.wav" WAVE
INDEX 01 00:00:00
TRACK 08 AUDIO
TITLE "In Love"
PERFORMER "The Hardkiss"
INDEX 00 02:54:35
FILE "08 In Love.wav" WAVE
INDEX 01 00:00:00
Якщо Ви справді бажаєте підтримати українське - після прослуховування, якщо музика вам сподобалась, придбайте ліцензійний диск. Підтримаймо вітчизняних виконавців!


Срібний реліз (на рейтинг впливає 50% завантаженого)
 Трекер:    Зареєстрований   

Завантажити / скачати українську музику



відео для новачків



 Зареєстрований:   2014-10-01 21:48
 Розмір:   223 MB 
 Оцінка музики:   9.1/10 (Голосів: 10)
   
Xshot 
VIP


З нами з: 22.09.09
Востаннє: 20.08.17
Повідомлень: 1600

2014-10-03 02:09  
А де пісня "не відпускай"? Наче ж обіцяли включити її до альбому..
ninenine 
Відео Гуртом - фільмокрай
Відео Гуртом - фільмокрай


З нами з: 23.10.09
Востаннє: 21.08.17
Повідомлень: 1151

2014-10-03 10:08  
Цитата:
А де пісня "не відпускай"? Наче ж обіцяли включити її до альбому..

Xshot це тільки promo CD, можливо ще добавлять пісень, офіційний реліз диска 9 жовтня.

jack 
Поважний учасник


З нами з: 11.03.11
Востаннє: 20.08.17
Повідомлень: 184

2014-10-03 15:27  
Xshot
Ось, треклист їхнього альбому. Назва пісні "Прірва".
Stones and Honey

Ваш часовий пояс: GMT + 2 Години

Нова тема   Відповісти