Бріклбері (Сезон 2) / Brickleberry (Season 2) (2013) 720p Ukr/Eng

Нові коментарі

Нова тема   Відповісти
Автор Повідомлення
Dark Invader 
Модератор відео


З нами з: 06.01.11
Востаннє: 15.04.21
Повідомлень: 3176

2014-09-30 23:51  
Бріклбері (Сезон 2) / Brickleberry (Season 2) (2013) 720p Ukr/Eng

Бріклбері (Сезон 2) / Brickleberry (Season 2) (2013) 720p Ukr/Eng


Жанр: комедія, чорний гумор, сатира
Країна: США



Кінокомпанія: Damn! Show Productions, Black Heart Productions, Fox 21 / Comedy Central
Режисер: Карл Фаруоло, Кріс Сонг та інші
Актори: Девід Херман, Деніел Тош, Кейтлін Олсен, Роджер Блек, Джеррі Майнор, Том Кенні та інші

Сюжет:
Мультсеріал про групу лісників-роздовбаїв, що зіткнулися з закриттям національного парку. На допомогу рейнджерам приходить новенький, чия мета - перетворити й зберегти заповідник.


Тривалість: 1 серія: ~ 22 хв. (цілком серій: 13)
Перелік серій
01. Miracle Lake
02. The Comeback
03. Woody's Girl
04. Trailer Park
05. Crippleberry
06. Ranger Games
07. My Way or the Highway
08. Little Boy Malloy
09. The Animals Strike Back
10. Scared Straight
11. Trip to Mars
12. My Favorite Bear
13. A-Park-a-Lypse
Якість:
Відео:
кодек:
розмір кадру: 1 280 х 718
бітрейт: ~ 2 600 кб/с

Аудіо # 1:
мова: українська
переклад: багатоголосий закадровий
кодек: 2.0
бітрейт: 192 кб/с

Аудіо # 2:
мова: англійська
переклад: оригінал
кодек: 5.1
бітрейт: 384 кб/с

Джерело озвучення:


Субтитри:
мова: українська (форсовані на місця без перекладу)
тип: програмні (м'які)
формат: *.srt



Info
General
Unique ID : 228874071719912897334417795914398005307 (0xAC2F8AF6609F238381DF3FDA0565783B)
Complete name : D:\Нова папка\Brickleberry - Season 2 (2013) 720p [Ukr, Eng] [Hurtom] by Dark Invader\[02x01] Miracle Lake [Ukr, Eng] [Hurtom].
Format :
Format version : Version 4 / Version 2
File size : 586 MiB
Duration : 21mn 38s
Overall bit rate : 3 789 Kbps
Encoded date : UTC 2014-09-30 20:03:14
Writing application : v7.2.0 ('On Every Street') 32bit built on Sep 13 2014 15:42:11
Writing library : libebml v1.3.0 + v1.4.1
_STATISTICS_WRITING_APP : v7.2.0 ('On Every Street') 32bit built on Sep 13 2014 15:42:11
_STATISTICS_WRITING_DATE_UTC : 2014-09-30 20:03:14
_STATISTICS_TAGS : BPS DURATION NUMBER_OF_FRAMES NUMBER_OF_BYTES
DURATION : 00:00:51.000000000
NUMBER_OF_FRAMES : 6
NUMBER_OF_BYTES : 343

Video
ID : 1
Format : AVC
Format/Info : Advanced Video Codec
Format profile : [email protected]
Format settings, CABAC : No
Format settings, ReFrames : 2 frames
Codec ID : V_MPEG4/ISO/AVC
Duration : 21mn 38s
Bit rate : 3 137 Kbps
Width : 1 280 pixels
Height : 718 pixels
Display aspect ratio : 16:9
Frame rate mode : Constant
Frame rate : 23.976 fps
Color space : YUV
Chroma subsampling : 4:2:0
Bit depth : 8 bits
Scan type : Progressive
Bits/(Pixel*Frame) : 0.142
Stream size : 485 MiB (83%)
Language : English
Default : Yes
Forced : No
Color primaries : BT.709
Transfer characteristics : BT.709
Matrix coefficients : BT.709

Audio #1
ID : 2
Format : AC-3
Format/Info : Audio Coding 3
Mode extension : CM (complete main)
Format settings, Endianness : Big
Codec ID : A_AC3
Duration : 21mn 38s
Bit rate mode : Constant
Bit rate : 192 Kbps
Channel(s) : 2 channels
Channel positions : Front: L R
Sampling rate : 48.0 KHz
Bit depth : 16 bits
Compression mode : Lossy
Stream size : 29.7 MiB (5%)
Title : QTV
Language : Ukrainian
Default : Yes
Forced : No

Audio #2
ID : 3
Format : AC-3
Format/Info : Audio Coding 3
Mode extension : CM (complete main)
Format settings, Endianness : Big
Codec ID : A_AC3
Duration : 21mn 38s
Bit rate mode : Constant
Bit rate : 384 Kbps
Channel(s) : 6 channels
Channel positions : Front: L C R, Side: L R, LFE
Sampling rate : 48.0 KHz
Bit depth : 16 bits
Compression mode : Lossy
Stream size : 59.4 MiB (10%)
Language : English
Default : No
Forced : No

Text
ID : 4
Format : UTF-8
Codec ID : S_TEXT/UTF8
Codec ID/Info : UTF-8 Plain Text
Title : Sub For
Language : Ukrainian
Default : Yes
Forced : No
Торрент-файл оновлено (11.10.2014)
Замінено 1 серію.
Додано 9-13 серії.
Повний сезон!


Скріншоти:


Джерело:
Особиста оцінка: 10 - без зайвих вагань рекомендую всім любителям Південного Парку і тому подібних мультів!

Цитата:
Подяки:
За запис xslim, PuMa.ua, DIMA_PEREYASLAVETS.
За синхронізацію Dark Invader.


Бронзовий реліз (на рейтинг впливає 75% завантаженого)
 Трекер:    Зареєстрований   

Завантажити / скачати мультфільм українською



відео для новачків



 Зареєстрований:   2014-10-11 17:29
 Розмір:   6.66 GB 
 Оцінка мультсеріалу:   9.9/10 (Голосів: 37)
   
d1massta 
Новенький


З нами з: 27.07.12
Востаннє: 29.03.21
Повідомлень: 4

2014-10-02 14:51  
Дякую!!!
Dark Invader 
Модератор відео


З нами з: 06.01.11
Востаннє: 15.04.21
Повідомлень: 3176

2014-10-11 17:30  
Торрент-файл оновлено (11.10.2014)
Замінено 1 серію
Додано 9-13 серії.
Повний сезон!

Headbanger 
Частий відвідувач


З нами з: 10.07.10
Востаннє: 14.04.21
Повідомлень: 32

2015-11-09 09:09  
Dark Invader 2 , ви часом не в курсі чи планується третій сезон? не хотілося б дивитися його у ворожій озвучці, а в оригіналі дивитися лінь
Ваш часовий пояс: GMT + 2 Години

Нова тема   Відповісти