Турбо / Turbo (2013) 720p-mini (60fps)

Нові коментарі

Нова тема   Відповісти
Автор Повідомлення
Drool 
VIP


З нами з: 17.04.10
Востаннє: 21.08.17
Повідомлень: 1374

2014-09-29 12:50  
Турбо / Turbo (2013) 720p-mini (60fps)

Жанр: анімація, пригодницький, комедія, сімейний, спорт
Країна: США



Кінокомпанія: DreamWorks Animation
Режисер: Девід Сорен
Актори: Раян Рейнольдс, Пол Джаматті, Майкл Пенья, Луїс Гузман, Білл Хейдер, Річард Дженкінс, Кен Жонг, Мішель Родрігез, Майя Рудольф, Бен Шварц та ін.

Сюжет:
Ніщо так не дратує темпераментного равлика на ім'я Турбо, який мріє про швидкість, як неспішне життя, повільні розмови, загальмовані сусіди. Нехай наш герой виглядає великим диваком в цьому млявому, неквапливому світі, нехай він іде всупереч закону природи про «народжений повзати», але якщо в серці горить «полум'яний мотор», а душа вірить у диво, воно просто не має права не відбутися!


Тривалість: 01:35:40
Якість: 720p-mini
Відео:
кодек:
бітрейт: 6620 кб/с
частота кадрів: 59.940 кадрів/с

Аудіо:
мова: українська
переклад: професійний дубльований
кодек: 5.1
бітрейт: 448 кб/с

Джерело озвучення:
Info
General
Unique ID : 156135758390553842572631005863951288700 (0x7576A73B38B1DBA24BCFFC6F6AB1497C)
Complete name : /mnt/disk/Video/Turbo.Ukr.Dub.2013BDRip.720p-mini.60FPS.
Format :
File size : 4.73 GiB
Duration : 1h 35mn
Overall bit rate : 7 073 Kbps
Movie name : Турбо / Turbo (2013) BDRip720p-mini [60 FPS] | video by NNNB
Encoded date : UTC 2010-02-22 21:41:31
Writing application : mkvmerge v6.1.0 ('Old Devil') built on Apr 14 2013 12:25:55
Writing library : libebml v1.3.0 + libmatroska v1.4.0

Video
ID : 1
Format : AVC
Format/Info : Advanced Video Codec
Format profile : [email protected]
Format settings, CABAC : Yes
Format settings, ReFrames : 9 frames
Codec ID : V_MPEG4/ISO/AVC
Duration : 1h 35mn
Bit rate : 6 620 Kbps
Width : 1 280 pixels
Height : 544 pixels
Display aspect ratio : 2.35:1
Frame rate : 59.940 fps
Color space : YUV
Chroma subsampling : 4:2:0
Bit depth : 8 bits
Scan type : Progressive
Bits/(Pixel*Frame) : 0.159
Stream size : 4.33 GiB (92%)
Title : Турбо / Turbo (2013) BDRip720p-mini [60 FPS] | video by NNNB
Writing library : core 130 r2273 b3065e6
Encoding settings : cabac=1 / ref=9 / deblock=1:0:0 / analyse=0x3:0x133 / me=umh / subme=11 / psy=1 / psy_rd=1.00:0.00 / mixed_ref=1 / me_range=32 / chroma_me=1 / trellis=2 / 8x8dct=1 / cqm=0 / deadzone=21,11 / fast_pskip=0 / chroma_qp_offset=-2 / threads=12 / lookahead_threads=2 / sliced_threads=0 / nr=0 / decimate=1 / interlaced=0 / bluray_compat=0 / constrained_intra=0 / bframes=7 / b_pyramid=2 / b_adapt=2 / b_bias=0 / direct=3 / weightb=1 / open_gop=0 / weightp=2 / keyint=250 / keyint_min=25 / scenecut=40 / intra_refresh=0 / rc=2pass / mbtree=0 / bitrate=6620 / ratetol=1.0 / qcomp=0.60 / qpmin=0 / qpmax=69 / qpstep=4 / cplxblur=20.0 / qblur=0.5 / ip_ratio=1.40 / pb_ratio=1.30 / aq=2:1.00
Language : English

Audio
ID : 2
Format : AC-3
Format/Info : Audio Coding 3
Mode extension : CM (complete main)
Codec ID : A_AC3
Duration : 1h 35mn
Bit rate mode : Constant
Bit rate : 448 Kbps
Channel(s) : 6 channels
Channel positions : Front: L C R, Side: L R, LFE
Sampling rate : 48.0 KHz
Bit depth : 16 bits
Compression mode : Lossy
Stream size : 307 MiB (6%)
Title : Рідна мова (дубляж) [ 5.1 @ 448 kbps - Blu-ray EUR]
Language : Ukrainian
Скріншоти




Джерело:
Особиста оцінка: 10 - без зайвих вагань рекомендую всім!


 Трекер:    Зареєстрований   

Завантажити / скачати мультфільм українською



відео для новачків



 Зареєстрований:   2014-09-29 12:53
 Розмір:   4.73 GB 
 Оцінка мультфільму:   10/10 (Голосів: 18)
   
Інші релізи
   Турбо / Turbo (2013) Ukr/Eng | Sub Ukr/Eng Gelios  12 / 2   1.71 GB   2013-10-28 07:09 
   Турбо / Turbo (2013) AVC patriot2305  12 / 0   1.86 GB   2013-10-27 20:49 
   Турбо / Turbo (2013) 720p Ukr/Eng | Sub Ukr/Eng kino.  11 / 0   3.8 GB   2013-10-27 13:07 
   Турбо / Turbo (2013) 1080p Ukr/Eng | Sub Ukr/Eng 11FrYkT  7 / 0   7.13 GB   2013-10-27 12:59 
   Турбо / Turbo (2013) Blu-Ray 1080p Multi | Sub Multi Drool  1 / 0   39.82 GB   2013-10-26 15:59 
ktw14 
Свій


З нами з: 24.03.11
Востаннє: 13.08.17
Повідомлень: 127

2014-11-26 13:42  
Веселий, раджу подвитись!
Ваш часовий пояс: GMT + 2 Години

Нова тема   Відповісти