Рим (Сезон 2) / Rome (Season 2) (2007) 720p Ukr/Eng | Sub Eng

Нові коментарі

Нова тема   Відповісти
Автор Повідомлення
Anonymous 







2014-09-22 16:52  
Рим (Сезон 2) / Rome (Season 2) (2007) 720p Ukr/Eng | Sub Eng

Рим (Сезон 2) / Rome (Season 2) (2007) 720p Ukr/Eng | Sub Eng


Жанр: драма, мелодрама, військовий, історія
Країна: Великобританія, США



Кінокомпанія / телеканал: BBC, HBO
Режисер: Майкл Ептід, Аллен Култер, Алан Пол та інші
Актори: Кевін МакКідд, Рей Стівенсон, Поллі Вокер, Керрі Кондон, Джеймс П'юрфой, Іен МакНіс та інші

Сюжет:
Другий сезон масштабного історичного серіалу, що розповідає про життя Римської Імперії після загибелі Цезаря. Октавіан Август - стає прямим і єдиним спадкоємцем Цезаря, однак, цей статус не цілком виправдовує очікування Октавіана.


Тривалість: 1 серія: ~ 53:00 (цілком серій: 10)
Перелік серій
Season 2, Episode 1: Passover
Season 2, Episode 2: Son of Hades
Season 2, Episode 3: These Being the Words of Marcus Tullius Cicero
Season 2, Episode 4: Testudo et Lepus (The Tortoise and the Hare)
Season 2, Episode 5: Heroes of the Republic
Season 2, Episode 6: Philippi
Season 2, Episode 7: Death Mask
Season 2, Episode 8: A Necessary Fiction
Season 2, Episode 9: Deus Impeditio Esuritori Nullus (No God Can Stop a Hungry Man)
Season 2, Episode 10: De Patre Vostro (About Your Father)
Якість: 720p [Encode by CtrlHD]
Відео:
кодек:
розмір кадру: 1280 х 720
бітрейт: ~ 5 500 кб/с

Аудіо # 1:
мова: українська
переклад: двоголосий закадровий
кодек: 2.0
бітрейт: 192 кб/с
Джерело озвучення:


Аудіо # 2:
мова: англійська
переклад: оригінал
кодек: 5.1
бітрейт: 1 509 кб/с

Аудіо # 3:
мова: англійська
переклад: оригінал
кодек: 2.0
бітрейт: 64 кб/с
примітка: Commentary

Субтитри:
мова: англійська
тип: програмні (м'які)
формат: *.srt
Info
General
Unique ID : 244493675744157475578463275819746102351 (0xB7EFC4E5E4C1814DA3876F920CA68C4F)
Complete name : D:\Video\TV Show\Rome The Complete Series 720p [UKR_ENG] [Hurtom]\Rome S02 (2007) 720p [UKR_ENG] [Hurtom]\Rome S02E01 (2007) 720p [UKR_ENG] [Hurtom].
Format :
Format version : Version 4 / Version 2
File size : 2.95 GiB
Duration : 57mn 50s
Overall bit rate : 7 298 Kbps
Movie name : Rome.S02E01.720p.BluRay..-CtrlHD [hurtom.com]
Encoded date : UTC 2014-09-22 09:32:15
Writing application : v7.2.0 ('On Every Street') 64bit built on Sep 13 2014 15:52:10
Writing library : libebml v1.3.0 + v1.4.1
DURATION : 00:57:50.016000000
NUMBER_OF_FRAMES : 108438
NUMBER_OF_BYTES : 83280384
_STATISTICS_WRITING_APP : v7.2.0 ('On Every Street') 64bit built on Sep 13 2014 15:52:10
_STATISTICS_WRITING_DATE_UTC : 2014-09-22 09:32:15
_STATISTICS_TAGS : BPS DURATION NUMBER_OF_FRAMES NUMBER_OF_BYTES

Video
ID : 1
Format : AVC
Format/Info : Advanced Video Codec
Format profile : [email protected]
Format settings, CABAC : Yes
Format settings, ReFrames : 9 frames
Codec ID : V_MPEG4/ISO/AVC
Duration : 57mn 50s
Nominal bit rate : 5 500 Kbps
Width : 1 280 pixels
Height : 720 pixels
Display aspect ratio : 16:9
Frame rate mode : Constant
Frame rate : 23.976 fps
Color space : YUV
Chroma subsampling : 4:2:0
Bit depth : 8 bits
Scan type : Progressive
Bits/(Pixel*Frame) : 0.249
Title : Rome.S02E01.720p.BluRay..-CtrlHD
Writing library : core 79 r1352M d487de4
Encoding settings : cabac=1 / ref=9 / deblock=1:-3:-3 / analyse=0x3:0x133 / me=umh / subme=9 / psy=1 / psy_rd=1.0:0.0 / mixed_ref=1 / me_range=24 / chroma_me=1 / trellis=2 / 8x8dct=1 / cqm=0 / deadzone=21,11 / chroma_qp_offset=-2 / threads=6 / nr=0 / decimate=0 / mbaff=0 / constrained_intra=0 / bframes=6 / b_pyramid=0 / b_adapt=2 / b_bias=0 / direct=3 / wpredb=1 / wpredp=2 / keyint=250 / keyint_min=25 / scenecut=40 / rc_lookahead=60 / rc=2pass / mbtree=1 / bitrate=5500 / ratetol=1.0 / qcomp=0.80 / qpmin=10 / qpmax=51 / qpstep=4 / cplxblur=20.0 / qblur=0.5 / ip_ratio=1.40 / aq=1:0.75 / pulldown=0 / nal_hrd=0
Language : English
Default : Yes
Forced : Yes
DURATION : 00:57:50.092000000
NUMBER_OF_FRAMES : 83199
NUMBER_OF_BYTES : 2387479430
_STATISTICS_WRITING_APP : v7.2.0 ('On Every Street') 64bit built on Sep 13 2014 15:52:10
_STATISTICS_WRITING_DATE_UTC : 2014-09-22 09:32:15
_STATISTICS_TAGS : BPS DURATION NUMBER_OF_FRAMES NUMBER_OF_BYTES

Audio #1
ID : 2
Format : AC-3
Format/Info : Audio Coding 3
Mode extension : CM (complete main)
Format settings, Endianness : Big
Codec ID : A_AC3
Duration : 57mn 50s
Bit rate mode : Constant
Bit rate : 192 Kbps
Channel(s) : 2 channels
Channel positions : Front: L R
Sampling rate : 48.0 KHz
Bit depth : 16 bits
Compression mode : Lossy
Stream size : 79.4 MiB (3%)
Title : 1plus1 Channel
Language : Ukrainian
Default : Yes
Forced : No

Audio #2
ID : 3
Format :
Format/Info : Digital Theater Systems
Mode : 16
Format settings, Endianness : Big
Codec ID : A_DTS
Duration : 57mn 50s
Bit rate mode : Constant
Bit rate : 1 509 Kbps
Channel(s) : 6 channels
Channel positions : Front: L C R, Side: L R, LFE
Sampling rate : 48.0 KHz
Bit depth : 24 bits
Compression mode : Lossy
Stream size : 624 MiB (21%)
Language : English
Default : No
Forced : No

Audio #3
ID : 4
Format :
Format/Info : Advanced Audio Codec
Format profile : LC
Codec ID : A_AAC
Duration : 57mn 50s
Channel(s) : 2 channels
Channel positions : Front: L R
Sampling rate : 48.0 KHz
Compression mode : Lossy
Title : Commentary
Language : English
Default : No
Forced : No

Text
ID : 5
Format : UTF-8
Codec ID : S_TEXT/UTF8
Codec ID/Info : UTF-8 Plain Text
Language : English
Default : No
Forced : No
Скріншоти

Джерело:
Подяка за звук: sile



Бронзовий реліз (на рейтинг впливає 75% завантаженого)
 Трекер:    Зареєстрований   

Завантажити / скачати серіал українською



відео для новачків



 Зареєстрований:   2014-09-22 16:52
 Розмір:   29.03 GB 
 Оцінка серіалу:   9.8/10 (Голосів: 24)
   
zaika 
VIP


З нами з: 01.07.12
Востаннє: 24.08.19
Повідомлень: 1206

2014-10-11 12:34  
Звичайно, це всього лиш кіноверсія. Але всеодно вражає. Відчувається велич, блиск, багатство, розкіш, сила Великого Риму. І хоч автори віддали перевагу показу інтриг, підступу, зрад, кривавої боротьби за владу - тим не менше відчувається і Закон і Порядок і Сенат і Право. Тобто все те, що стало основою західної цивілізації.
Весь час стояла перед очима інша картинка - через більш як 1500 років, сидячи при каганці в смердючих палатах, вбраний в шкури цар Івашка Лютий розбирає каракулі монаха Філофея, і уявляє себе нащадком римських імператорів. Вдуріти можна. А сьогоднішні їхні "науковцы" на повному серйозі кажуть, що ідея Третього Риму має знову стати основою сучасної державної доктрини. Приїхали.
Потрібно відмітити прекрасну озвучку. Студії канала 1+1 браво. Голос Георгія Гавриленка це наша гордість. Загалом - 9/10.

Ua.bos_01 
VIP


З нами з: 22.06.15
Востаннє: 19.08.19
Повідомлень: 1570

2015-08-17 10:08  
Цей серіал максимально правдиво показує весь період тодішньої Римської Імперії. Звісно, є купа кіношних затяжностей. однак в цілому - реальні історичні події, які змінили Світ! Другий сезон потрібно обов'язково переглянути - це логічне продовження першого, і нічим не гірше.
_Alex_UA 
Поважний учасник


З нами з: 18.07.12
Востаннє: 25.08.19
Повідомлень: 150

2016-02-08 11:46  
дайте, будь ласка, роздачу Happy
Anonymous 







2019-02-08 11:16  
1080 ?
Ваш часовий пояс: GMT + 2 Години

Нова тема   Відповісти