Два & два / Two & Two (2010) 720p Fas | sub Ukr

Нові коментарі

Нова тема   Відповісти
Автор Повідомлення
wolesj 
VIP


З нами з: 15.07.12
Востаннє: 01.10.20
Повідомлень: 910

2014-09-21 00:38  
Два & два / Two & Two (2010) 720p Fas | sub Ukr

Два & два / Two & Two (2010) 720p Fas | sub Ukr


Жанр: драма
Країна: Велика Британія



Кінокомпанія: A Flick Art Production
Режисер: Бабак Анварі / Babak Anvari
Актори: Bijan Daneshmand, Ravi Karimi, Pouyan Lotfi та інші

Сюжет:
Одного дня в школі вводиться новий порядок: учні повинні сліпо вірити всьому, що скажуть вчителі…
Бабак Анварі: «Головною мотивацією відзняти «Два & два» було дослідження прагнення, яке змушує людей кидати виклик владі в деспотичній ситуації. Я вважаю, що такі прагнення є в кожному з нас».


Тривалість: 00:08:33
Якість:
Відео:
кодек:
розмір кадру: 1280x720
бітрейт: 926 кб/с

Аудіо:
мова: фарсі
переклад: оригінал
кодек: 2.0
бітрейт: 192 кб/с

Субтитри:
мова: українська
переклад:: з англійської wolesj
тип: програмні (м'які)
формат: *.srt

Субтитри:
мова: англійська
тип: вбудовані (жорсткі)
Скріншоти

Медіаінфо

General
Format : MPEG-4
Format profile : Base Media / Version 2
Codec ID : mp42
File size : 68.5 MiB
Duration : 8mn 33s
Overall bit rate mode : Variable
Overall bit rate : 1 120 Kbps
Encoded date : UTC 2014-06-17 20:30:10
Tagged date : UTC 2014-06-17 20:30:10
gsst : 0
gstd : 513066
gssd : B4A7DDA88MH1408636549340299
gshh : r8---sn-4g57kue6.googlevideo.com

Video
ID : 1
Format : AVC
Format/Info : Advanced Video Codec
Format profile : [email protected]
Format settings, CABAC : Yes
Format settings, ReFrames : 1 frame
Format settings, GOP : M=1, N=60
Codec ID : avc1
Codec ID/Info : Advanced Video Coding
Duration : 8mn 33s
Bit rate : 926 Kbps
Maximum bit rate : 4 471 Kbps
Width : 1 280 pixels
Height : 720 pixels
Display aspect ratio : 16:9
Frame rate mode : Constant
Frame rate : 25.000 fps
Color space : YUV
Chroma subsampling : 4:2:0
Bit depth : 8 bits
Scan type : Progressive
Bits/(Pixel*Frame) : 0.040
Stream size : 56.6 MiB (83%)
Tagged date : UTC 2014-06-17 20:30:13

Audio
ID : 2
Format :
Format/Info : Advanced Audio Codec
Format profile : LC
Codec ID : 40
Duration : 8mn 33s
Bit rate mode : Variable
Bit rate : 192 Kbps
Maximum bit rate : 201 Kbps
Channel(s) : 2 channels
Channel positions : Front: L R
Sampling rate : 44.1 KHz
Compression mode : Lossy
Stream size : 11.7 MiB (17%)
Title : IsoMedia File Produced by Google, 5-11-2011
Encoded date : UTC 2014-06-17 20:30:12
Tagged date : UTC 2014-06-17 20:30:13
Джерело: YouTube
Особиста оцінка: 10 - без зайвих вагань рекомендую всім!


Золотий реліз (завантажене не впливає на рейтинг)
 Трекер:    Зареєстрований   

Завантажити / скачати фільм українською



відео для новачків



 Зареєстрований:   2014-09-21 00:38
 Розмір:   69 MB 
 Оцінка фільму:   10/10 (Голосів: 4)
   
Ваш часовий пояс: GMT + 2 Години

Нова тема   Відповісти