Нація прибульців / Alien Nation (1988) 1080i 2xUkr/Eng | Sub Ukr/Eng

Нові коментарі

Нова тема   Відповісти
Автор Повідомлення
urij546724 
Відео Гуртом - фільмокрай
Відео Гуртом - фільмокрай


З нами з: 16.03.10
Востаннє: 26.09.20
Повідомлень: 5701

2014-09-20 18:49  
Нація прибульців / Alien Nation (1988) 1080i 2xUkr/Eng | Sub Ukr/Eng

Нація прибульців / Alien Nation (1988) 1080i 2xUkr/Eng | Sub Ukr/Eng


Жанр: фантастика, кримінальний, драма
Країна: США



Кіностудія / кінокомпанія: American Entertainment Partners II L.P., Twentieth Century Fox Film Corporation
Режисер: Грем Бейкер (Graham Baker)
Актори: Джеймс Каан (James Caan), Менді Петінкін (Mandy Patinkin), Теренс Стемп (Terence Stamp), Кевін Мейджор Ховард (Kevyn Major Howard), Леслі Бевіс (Leslie Bevis), Пітер Джейсон (Peter Jason), Конрад Данн (Conrad Dunn), Джефф Кобер (Jeff Kober)...

Сюжет:
У пустелі Мохаве зазнав аварії величезний інопланетний космічний корабель, що перевозив 250 000 рабів з різних кінців Галактики. Прибульці стали жити серед людей, багато з яких були дуже вороже налаштовані по відношенню до «покидькам Всесвіту». Серед них - детектив Метью Сайкс, напарник якого загинув в перестрілці з бандою прибульців. Перебираючи папери загиблого друга, Метью робить відкриття: його вбили за те, що він намагався з'ясувати, чому прибульці так сліпо корилися своїм колишнім господарям. Коли в місті починають знаходити трупи прибульців, які померли від дивної хвороби, а на сторінки газет потрапляє знімок жахливої тварюки, Метью і його новий напарник, прибулець Джордж, змушені працювати разом, щоб розкрити таємницю цих подій ...


Тривалість: 1:26:09
Якість: 1080i
Відео:
кодек:
розмір кадру: 1920 х 1080
бітрейт: 7845 кб/с

Аудіо #1:
мова: українська
переклад: двоголосий закадровий
кодек: 2.0 (подвійне моно)
бітрейт: 192 кб/с
озвучка: TV+ для ICTV
доріжка окремо: Завантажити

Аудіо #2:
мова: українська
переклад: двоголосий закадровий
кодек: 5.1
бітрейт: 384 кб/с
озвучка: TV+ для ICTV
примітка: звук низької якості (запис з архіву)

Аудіо #3:
мова: українська
переклад: двоголосий закадровий
кодек: 5.1
бітрейт: 384 кб/с
запис звуку з каналу: 2+2

Аудіо #4:
мова: англійська
переклад: оригінал
кодек: 5.1
бітрейт: 384 кб/с

Субтитри #1:
мова: українська
тип: пререндерні
формат: *.pgs

Субтитри #2:
мова: англійська
тип: пререндерні
формат: *.pgs

Info
General
ID : 1 (0x1)
Format : MPEG-TS
File size : 5.85 GiB
Duration : 1 h 26 min
Overall bit rate mode : Variable
Overall bit rate : 9 712 kb/s
Maximum Overall bit rate : 35.5 Mb/s

Video
ID : 4113 (0x1011)
Menu ID : 1 (0x1)
Format : AVC
Format/Info : Advanced Video Codec
Format profile : [email protected]
Format settings : CABAC / 4 Ref Frames
Format settings, CABAC : Yes
Format settings, Reference : 4 frames
Format settings, GOP : M=4, N=12
Codec ID : 27
Duration : 1 h 26 min
Bit rate mode : Variable
Bit rate : 7 874 kb/s
Maximum bit rate : 40.0 Mb/s
Width : 1 920 pixels
Height : 1 080 pixels
Display aspect ratio : 16:9
Frame rate : 25.000 FPS
Color space : YUV
Chroma subsampling : 4:2:0
Bit depth : 8 bits
Scan type : Interlaced
Scan type, store method : Separated fields
Scan order : Top Field First
Bits/(Pixel*Frame) : 0.152
Stream size : 4.74 GiB (81%)
Color range : Limited
Color primaries : BT.709
Transfer characteristics : BT.709
Matrix coefficients : BT.709

Audio #1
ID : 4352 (0x1100)
Menu ID : 1 (0x1)
Format : AC-3
Format/Info : Audio Coding 3
Commercial name : Dolby Digital
Codec ID : 129
Duration : 1 h 26 min
Bit rate mode : Constant
Bit rate : 192 kb/s
Channel(s) : 2 channels
Channel layout : L R
Sampling rate : 48.0 kHz
Frame rate : 31.250 FPS (1536 SPF)
Compression mode : Lossy
Stream size : 118 MiB (2%)
Language : Ukrainian
Service kind : Complete Main

Audio #2
ID : 4353 (0x1101)
Menu ID : 1 (0x1)
Format : AC-3
Format/Info : Audio Coding 3
Commercial name : Dolby Digital
Codec ID : 129
Duration : 1 h 26 min
Bit rate mode : Constant
Bit rate : 384 kb/s
Channel(s) : 6 channels
Channel layout : L R C LFE Ls Rs
Sampling rate : 48.0 kHz
Frame rate : 31.250 FPS (1536 SPF)
Compression mode : Lossy
Stream size : 237 MiB (4%)
Language : Ukrainian
Service kind : Complete Main

Audio #3
ID : 4354 (0x1102)
Menu ID : 1 (0x1)
Format : AC-3
Format/Info : Audio Coding 3
Commercial name : Dolby Digital
Codec ID : 129
Duration : 1 h 26 min
Bit rate mode : Constant
Bit rate : 384 kb/s
Channel(s) : 6 channels
Channel layout : L R C LFE Ls Rs
Sampling rate : 48.0 kHz
Frame rate : 31.250 FPS (1536 SPF)
Compression mode : Lossy
Stream size : 237 MiB (4%)
Language : Ukrainian
Service kind : Complete Main

Audio #4
ID : 4355 (0x1103)
Menu ID : 1 (0x1)
Format : AC-3
Format/Info : Audio Coding 3
Commercial name : Dolby Digital
Codec ID : 129
Duration : 1 h 26 min
Bit rate mode : Constant
Bit rate : 384 kb/s
Channel(s) : 6 channels
Channel layout : L R C LFE Ls Rs
Sampling rate : 48.0 kHz
Frame rate : 31.250 FPS (1536 SPF)
Compression mode : Lossy
Stream size : 237 MiB (4%)
Language : English
Service kind : Complete Main

Text #1
ID : 4608 (0x1200)
Menu ID : 1 (0x1)
Format : PGS
Codec ID : 144
Duration : 1 h 26 min
Delay relative to video : 3 s 800 ms
Language : Ukrainian

Text #2
ID : 4609 (0x1201)
Menu ID : 1 (0x1)
Format : PGS
Codec ID : 144
Duration : 1 h 25 min
Delay relative to video : 15 s 720 ms
Language : English
Скріншоти:




Трейлери:

Семпл
Джерело 1_________Джерело 2_________Джерело 3_________Джерело 4_________Джерело 5_________Джерело 6
У випадку, якщо з усіх джерел семпл видалять, прохання повідомити мені у ПРИВАТ


Подяка:

1. Пану karvai0, Пану xslim і Пану robotron005 за запис звуку з ТБ.


Реліз створено:

Особиста оцінка: Ще не дивився.


Срібний реліз (на рейтинг впливає 50% завантаженого)
 Трекер:    Зареєстрований   

Завантажити / скачати фільм українською



відео для новачків



 Зареєстрований:   2020-04-02 18:11
 Розмір:   5.85 GB 
 Оцінка фільму:   7.1/10 (Голосів: 14)
 Прохання залишати коментарі і не тікати з роздачі :-)
   
urij546724 
Відео Гуртом - фільмокрай
Відео Гуртом - фільмокрай


З нами з: 16.03.10
Востаннє: 26.09.20
Повідомлень: 5701

2020-04-02 10:19  
Реліз оновлено. Додано кращий звук з каналу ICTV (T2). Оскільки додано моно звук, доріжку з 5.1 звуком залишено.
igor911 
Модератор відео


З нами з: 18.01.08
Востаннє: 27.09.20
Повідомлень: 15006

2020-04-02 17:02  
urij546724 написано:
1080i Ukr/Eng | Sub Ukr/Eng

Тут є субтитри? В МІ їх не видно. Якщо українські озвучення різні - треба вказати це в назві теми, якщо однакові - вказати в описі Аудіо.
Постер тут 2,3 Мб. Треба до 200 кб (макс. 400 кб)

urij546724 
Відео Гуртом - фільмокрай
Відео Гуртом - фільмокрай


З нами з: 16.03.10
Востаннє: 26.09.20
Повідомлень: 5701

2020-04-02 18:10  
igor911 написано:
Тут є субтитри?

Зараз поміняю торент, забув додати.
igor911 написано:
якщо однакові - вказати в описі Аудіо

Це вказано:
urij546724 написано:

Аудіо #1:
озвучка: TV+ для ICTV

Аудіо #2:
озвучка: TV+ для ICTV

igor911 написано:
Треба до 200 кб

Зменшив розмір.

igor911 
Модератор відео


З нами з: 18.01.08
Востаннє: 27.09.20
Повідомлень: 15006

2020-04-02 19:22  
urij546724 написано:

Аудіо #1:
озвучка: TV+ для ICTV

Аудіо #2:
озвучка: TV+ для ICTV

Аудіо #3:
запис звуку з каналу: 2+2

ще раз перепитаю, бо з опису не зрозуміло: в Аудіо # 3 озвучка та сама, що й в перших двох доріжках?

urij546724 
Відео Гуртом - фільмокрай
Відео Гуртом - фільмокрай


З нами з: 16.03.10
Востаннє: 26.09.20
Повідомлень: 5701

2020-04-02 20:34  
igor911 написано:
ще раз перепитаю

Ні звісно, там же ж вказано, що запис з 2+2, озвучка інша.
Потрібно якось додатково це вказати?

igor911 
Модератор відео


З нами з: 18.01.08
Востаннє: 27.09.20
Повідомлень: 15006

2020-04-02 21:09  
urij546724 написано:
Потрібно якось додатково це вказати?

urij546724 написано:
1080i Ukr/Eng | Sub Ukr/Eng

Авжеж! 2xUkr/Eng!

urij546724 
Відео Гуртом - фільмокрай
Відео Гуртом - фільмокрай


З нами з: 16.03.10
Востаннє: 26.09.20
Повідомлень: 5701

2020-04-02 22:03  
igor911, додав
Ваш часовий пояс: GMT + 2 Години

Нова тема   Відповісти