Бріклбері (Сезон 1) / Brickleberry (Season 1) (2012) 720p Ukr/Eng

Нові коментарі

Нова тема   Відповісти
Автор Повідомлення
Dark Invader 
Модератор відео


З нами з: 06.01.11
Востаннє: 15.04.21
Повідомлень: 3176

2014-09-16 19:16  
Бріклбері (Сезон 1) / Brickleberry (Season 1) (2012) 720p Ukr/Eng

Бріклбері (Сезон 1) / Brickleberry (Season 1) (2012) 720p Ukr/Eng


Жанр: комедія, чорний гумор, сатира
Країна: США



Кінокомпанія: Damn! Show Productions, Black Heart Productions, Fox 21 / Comedy Central
Режисери: Карл Фаруоло, Кріс Сонг та інші
Актори: Девід Херман, Деніел Тош, Кейтлін Олсен, Роджер Блек, Джеррі Майнор, Том Кенні

Сюжет:
Мультсеріал про групу лісників-роздовбаїв, що зіткнулися з закриттям національного парку. На допомогу рейнджерам приходить новенький, чия мета - перетворити й зберегти заповідник.


Тривалість: 1 серія: ~ 22 хв. (цілком серій: 10)
Перелік серій
01. Welcome to Brickleberry
02. Weeks Notice
03. Saved by Balls
04. Squabbits
05. Race Off
06. Gay Bomb
07. Hello Dottie
08. Steves Bald
09. Daddy Issues
10. The Dam Show
Якість:
Відео:
кодек:
розмір кадру: 1 280 х 720
бітрейт: ~ 2 500 кб/с

Аудіо # 1:
мова: українська
переклад: багатоголосий закадровий
кодек: 2.0
бітрейт: 192 кб/с

Аудіо # 2:
мова: англійська
переклад: оригінал
кодек: 5.1
бітрейт: 384 кб/с

Джерело озвучення:


Info
General
Unique ID : 250113323616684816153890950034131572922 (0xBC2A12EE047AFD4CAF7F337BBDCCD8BA)
Complete name : D:\Нова папка\Brickleberry - Season 1 (2012) 720p [Ukr, Eng] [Hurtom] by Dark Invader\[01x01] Welcome to Brickleberry [Ukr, Eng] [Hurtom].
Format :
Format version : Version 4 / Version 2
File size : 489 MiB
Duration : 21mn 38s
Overall bit rate : 3 160 Kbps
Encoded date : UTC 2014-09-14 19:37:06
Writing application : v7.2.0 ('On Every Street') 32bit built on Sep 13 2014 15:42:11
Writing library : libebml v1.3.0 + v1.4.1
DURATION : 00:21:38.048000000
NUMBER_OF_FRAMES : 40564
NUMBER_OF_BYTES : 31153152
_STATISTICS_WRITING_APP : v7.2.0 ('On Every Street') 32bit built on Sep 13 2014 15:42:11
_STATISTICS_WRITING_DATE_UTC : 2014-09-14 19:37:06
_STATISTICS_TAGS : BPS DURATION NUMBER_OF_FRAMES NUMBER_OF_BYTES

Video
ID : 1
Format : AVC
Format/Info : Advanced Video Codec
Format profile : [email protected]
Format settings, CABAC : No
Format settings, ReFrames : 2 frames
Codec ID : V_MPEG4/ISO/AVC
Duration : 21mn 38s
Bit rate : 2 522 Kbps
Width : 1 280 pixels
Height : 720 pixels
Display aspect ratio : 16:9
Frame rate mode : Constant
Frame rate : 23.976 fps
Color space : YUV
Chroma subsampling : 4:2:0
Bit depth : 8 bits
Scan type : Progressive
Bits/(Pixel*Frame) : 0.114
Stream size : 390 MiB (80%)
Language : English
Default : Yes
Forced : No
Color primaries : BT.709
Transfer characteristics : BT.709
Matrix coefficients : BT.709

Audio #1
ID : 2
Format : AC-3
Format/Info : Audio Coding 3
Mode extension : CM (complete main)
Format settings, Endianness : Big
Codec ID : A_AC3
Duration : 21mn 38s
Bit rate mode : Constant
Bit rate : 192 Kbps
Channel(s) : 2 channels
Channel positions : Front: L R
Sampling rate : 48.0 KHz
Bit depth : 16 bits
Compression mode : Lossy
Stream size : 29.7 MiB (6%)
Title : QTV
Language : Ukrainian
Default : Yes
Forced : No

Audio #2
ID : 3
Format : AC-3
Format/Info : Audio Coding 3
Mode extension : CM (complete main)
Format settings, Endianness : Big
Codec ID : A_AC3
Duration : 21mn 38s
Bit rate mode : Constant
Bit rate : 384 Kbps
Channel(s) : 6 channels
Channel positions : Front: L C R, Side: L R, LFE
Sampling rate : 48.0 KHz
Bit depth : 16 bits
Compression mode : Lossy
Stream size : 59.4 MiB (12%)
Language : English
Default : No
Forced : No
Торрент-файл оновлено (23.09.2014)
Додано 7-10 серії.
Повний сезон!


Скріншоти:


Джерело:
Особиста оцінка: 10 - без зайвих вагань рекомендую всім любителям Південного Парку і тому подібних мультів!

Цитата:
Подяки:
За запис xslim, PuMa.ua.
За синхронізацію Dark Invader.
За постер zed.


Бронзовий реліз (на рейтинг впливає 75% завантаженого)
 Трекер:    Зареєстрований   

Завантажити / скачати мультфільм українською



відео для новачків



 Зареєстрований:   2014-09-23 19:50
 Розмір:   4.45 GB 
 Оцінка мультсеріалу:   9.6/10 (Голосів: 39)
   
Dark Invader 
Модератор відео


З нами з: 06.01.11
Востаннє: 15.04.21
Повідомлень: 3176

2014-09-23 19:50  
Торрент-файл оновлено (23.09.2014)
Додано 7-10 серії.
Повний сезон!

Leshchyshyn 
VIP


З нами з: 20.07.09
Востаннє: 14.04.21
Повідомлень: 469

2014-10-07 11:06  
Це самий раельний чорний з чорних гуморів =)
Аж живіт болів від сміху коли дивився)))

Про якість відео: НА ВИСОТІ. Дивився на Full-HD, картинка на 5 з 5.
Про озвучку: НА ВИСОТІ.

Дякую релізеру =)

gu4 
Новенький


З нами з: 04.01.11
Востаннє: 04.03.21
Повідомлень: 1

2015-12-27 11:38  
дякую
Jahshishin 
Новенький


З нами з: 21.06.09
Востаннє: 09.12.17
Повідомлень: 3

2016-06-26 01:36  
Автору бочку горілки...!!!
fyfufrb 
Свій


З нами з: 07.10.09
Востаннє: 10.04.21
Повідомлень: 107

2017-08-25 08:57  
станьте хтось на роздачу .. дякую
mennas 
Новенький


З нами з: 04.05.17
Востаннє: 07.04.21
Повідомлень: 11

2017-09-16 00:36  
передивився Brickleberry всі 3 сезони у російській раз певне з 8-10)))
мульт шедевр

спробуєм українську озвучку))

сподіваюсь що тут є матюки)))

Ваш часовий пояс: GMT + 2 Години

Нова тема   Відповісти