Космо Денді / Space Dandy / Space☆Dandy / スペース☆ダンディ (Сезон 1) (2014) 720p Ukr/Jap | sub Ukr/Eng

Нові коментарі

Нова тема   Відповісти
Автор Повідомлення
Anonymous 







2014-09-16 07:29  
Космо Денді / Space Dandy / Space☆Dandy / スペース☆ダンディ (Сезон 1) (2014) 720p Ukr/Jap | sub Ukr/Eng



Жанр: пригоди, комедія, фантастика
Країна: Японія



6.77 (127 голосів)

Кінокомпанія: Bones
Режисер: Ватанабе Шін'їчіро
Ролі озвучують: Сувабе Джюн'їчі, Йошіно Хіроюкі, Сатаке Укі та інші

Сюжет:
Розповідь про Космо Денді — безстрашного мандрівника космосом, який подорожує у пошуках нових видів прибульців. У його пригодах його супроводжують безстрашні КТ (робот-прибиральник) і Няв (збоченець із роду Стручкозіянців). Хоча до біса це... Головне у цій розповіді — жіночі дупки, так навіть і Денді каже.


Тривалість: 1 серія: 25 хв (цілком серій: 13)
Перелік серій
01. Жити за потоком, крихітко
02. У пошуках примарної раменної, крихітко
03. Іноді й хитруна вдається перехитрити, крихітко
04. Інколи просто не можна жити, не померши, крихітко
05. Веселий товариш конче потрібен в космосі, крихітко
06. Війна майкійців і трусійців, крихітко
07. У космосі ганятись небезпечно, крихітко
08. Планета самотньої собачки, крихітко
09. Рослини теж живі, крихітко
10. Завжди є завтра, крихітко
11. Я ніколи не пригадаю тебе, крихітко
12. Нікому невідомий хамеліянець, крихітко
13. Навіть пилосмоки закохуються, крихітко
Якість:
Відео:
кодек:
розмір кадру: 1280 х 720
бітрейт: ~3702 кб/с

Аудіо # 1:
мова: українська
переклад: одноголосий закадровий Rise
кодек: 2.0
бітрейт: 448 кб/с (у 6-й серії 192 кбіт/с)

Аудіо # 2:
мова: японська
переклад: оригінал
кодек: 2.0
бітрейт: 448 кб/с

Джерело озвучення:


Субтитри:
мова: українська (Написи/Повні) Gedet
тип: програмні (м'які)
формат: *.ass

Субтитри:
мова: англійська
тип: програмні (м'які)
формат: *.ass
Info
General
Unique ID : 221358259796083904908317765501670903492 (0xA6880CD336D4EC638CF4193177A7CEC4)
Complete name : D:\Anime\Space Dandy\Space Dandy - 01 (1280x720 Blu-ray ).
Format :
Format version : Version 4 / Version 2
File size : 812 MiB
Duration : 24mn 11s
Overall bit rate : 4 691 Kbps
Movie name : Космо Денді - 01
Encoded date : UTC 2014-09-14 08:59:01
Writing application : mkvmerge v6.8.0 ('Theme for Great Cities') 64bit built on Mar 2 2014 21:34:26
Writing library : libebml v1.3.0 + libmatroska v1.4.1
Attachment : Yes / Yes / Yes / Yes / Yes / Yes / Yes / Yes / Yes / Yes / Yes / Yes

Video
ID : 1
Format : AVC
Format/Info : Advanced Video Codec
Format profile : High [email protected]
Format settings, CABAC : Yes
Format settings, ReFrames : 16 frames
Codec ID : V_MPEG4/ISO/AVC
Duration : 24mn 11s
Bit rate : 3 702 Kbps
Width : 1 280 pixels
Height : 720 pixels
Display aspect ratio : 16:9
Frame rate mode : Constant
Frame rate : 23.976 fps
Color space : YUV
Chroma subsampling : 4:2:0
Bit depth : 10 bits
Scan type : Progressive
Bits/(Pixel*Frame) : 0.168
Stream size : 640 MiB (79%)
Title : [MD]
Language : Japanese
Default : Yes
Forced : No

Audio #1
ID : 2
Format : AC-3
Format/Info : Audio Coding 3
Mode extension : CM (complete main)
Format settings, Endianness : Big
Codec ID : A_AC3
Duration : 24mn 11s
Bit rate mode : Constant
Bit rate : 448 Kbps
Channel count : 2 channels
Channel positions : Front: L R
Sampling rate : 48.0 KHz
Bit depth : 16 bits
Compression mode : Lossy
Stream size : 77.5 MiB (10%)
Title : Українська [email protected] кбіт/с
Language : Ukrainian
Default : No
Forced : No

Audio #2
ID : 3
Format : AC-3
Format/Info : Audio Coding 3
Mode extension : CM (complete main)
Format settings, Endianness : Big
Codec ID : A_AC3
Duration : 24mn 11s
Bit rate mode : Constant
Bit rate : 448 Kbps
Channel count : 2 channels
Channel positions : Front: L R
Sampling rate : 48.0 KHz
Bit depth : 16 bits
Compression mode : Lossy
Stream size : 77.5 MiB (10%)
Title : Японська [email protected] кбіт/с
Default : No
Forced : No

Text #1
ID : 4
Format : ASS
Codec ID : S_TEXT/ASS
Codec ID/Info : Advanced Sub Station Alpha
Compression mode : Lossless
Title : Написи
Language : Ukrainian
Default : No
Forced : Yes

Text #2
ID : 5
Format : ASS
Codec ID : S_TEXT/ASS
Codec ID/Info : Advanced Sub Station Alpha
Compression mode : Lossless
Title : Gedet
Language : Ukrainian
Default : No
Forced : No

Text #3
ID : 6
Format : ASS
Codec ID : S_TEXT/ASS
Codec ID/Info : Advanced Sub Station Alpha
Compression mode : Lossless
Title : Commie
Language : English
Default : No
Forced : No

Menu
00:00:00.000 : :Intro
00:00:42.042 : :OP
00:02:13.009 : :Part A
00:11:19.015 : :Part B
00:22:25.017 : :ED
00:23:54.982 : :Preview
Скріншоти












Джерело: &
Особиста оцінка: 0 - не дивився


Авторський реліз (завантажувати можна без реєстрації)
 Трекер:    Зареєстрований   

Завантажити / скачати аніме українською



відео для новачків



 Зареєстрований:   2014-10-19 13:03
 Розмір:   8.69 GB 
 Оцінка аніме:   5.5/10 (Голосів: 2)
   
bot 
робот


З нами з: 30.09.07
Востаннє: 26.05.05
Повідомлень: 17418

2014-10-19 12:59  
Тему перенесено з Пісочниця до форуму Аніме


NeetScrool

Ваш часовий пояс: GMT + 2 Години

Нова тема   Відповісти