Президент учради - покоївка! / Kaichou wa Maid-sama! / 会長はメイド様! [01-02 із 26] [2010] 720p

Нові коментарі

Нова тема   Відповісти
Автор Повідомлення
Arch Enemy 
VIP


З нами з: 30.08.12
Востаннє: 14.08.17
Повідомлень: 644

2014-09-09 21:29  
Президент учради - покоївка! / Kaichou wa Maid-sama! / 会長はメイド様!


Вікове обмеження: 16+

Країна: Японія
Період трансляції: з 02.04.2010 по 24.09.2010
Жанр: комедія, романтика, школа
Аніместудія: J.C.STAFF
Режисер: Сакурай Хіроакі
Автор оригіналу: Фуджівара Хіро
Сейю: Фуджімура Аюмі (Аюзава Місакі), Окамото Нобухіко (Усуі Такумі), Ішіхара Каорі (Аюзава Сузуна), Ісе Марія (Еріка), Ханазава Кана (Ханазоно Сакура), Асумі Кана (Хонока), Іґараші Хіромі (Хьодо Аой), Тойосакі Акі (Хьодо Сацукі), Сузумура Кенічі (Іґараші Тора), Кобаяші Юу (Каґа Шізуко) та інші.

Сюжет:
Історія розгортається навколо Місакі Аюзави, першої дівчини-президента учнівської ради у школі, яка ще до недавна була тільки для хлопчиків. Дівчина видалася з норовом – школу Місакі тримає в залізних шорах. Але є в неї невеличка таємниця – у зв’язку з сімейними обставинами вона змушена підробляти в кафе покоївок.
І ось, одного разу такий собі Усуй Такумі, відмінник, спортсмен, та й узагалі весь із себе хвацький парубок і знатний викрадач дівочих сердець, дізнається її секрет. І за своє мовчання він просить зовсім набагато – лишень проводити трохи часу з Місакі. Тут і починаються їхні веселі пригоди...

© MadGuy

Кількість серій: 26 (1 серія / ~24 хв.)
Перелік серій
01. Покоївка Місакі!
02. I на шкiльному фестивалi в ролi покоївки

03. Який колiр Мiсаки? Справжній?
04. Богиня мережі - Аой
...

Відео:
якість:
контейнер:
кодек:
частота кадрів: 23.976 кадрів/сек.
розмір кадру: 1280х720 пікс.
бітрейт: ~2500 кбіт/сек.

Аудіо:
мова: українська, двоголосе закадрове озвучування
кодек:
кількість каналів: 2.0
бітрейт: 256 кбіт/сек.
частота: 48000 Гц

Субтитри:
мова: українська, тільки написи.
формат: ASS
тип: програмні, м'які, внутрішні.

Джерело озвучення: AniUA

озвучування: Hennessi та Pika
переклад: MadGuy
таймінг: Kohinsan
робота зі звуком: Nillix
контроль якості: Arch_Enemy та MadGuy

Джерело релізу: AniUA
Скріншоти

MI
General
Unique ID : 181693596723419174271630536089637709113 (0x88B0E9F2F210A79696260497D7876539)
Complete name : E:\Anime\[AniUA]_Kaichou_wa_Maid-sama_[]_[720p]\[AniUA]_Kaichou_wa_Maid-sama_01_[BDRip_1280x720_AC3]_[Hennessi_&_Pika].
Format :
Format version : Version 2
File size : 464 MiB
Duration : 24mn 13s
Overall bit rate : 2 681 Kbps
Encoded date : UTC 2014-09-06 22:16:39
Writing application : mkvmerge v5.8.0 ('No Sleep / Pillow') built on Sep 2 2012 15:37:04
Writing library : libebml v1.2.3 + libmatroska v1.3.0
Attachements : GOTHICB_0.TTF / inside names_0.ttf / JakobDPNormal_0.ttf

Video
ID : 1
Format : AVC
Format/Info : Advanced Video Codec
Format profile : High [email protected]
Format settings, CABAC : Yes
Format settings, ReFrames : 9 frames
Muxing mode : Header stripping
Codec ID : V_MPEG4/ISO/AVC
Duration : 24mn 13s
Bit rate : 2 372 Kbps
Width : 1 280 pixels
Height : 720 pixels
Display aspect ratio : 16:9
Frame rate mode : Constant
Frame rate : 23.976 fps
Color space : YUV
Chroma subsampling : 4:2:0
Bit depth : 10 bits
Scan type : Progressive
Bits/(Pixel*Frame) : 0.107
Stream size : 411 MiB (88%)
Title : http://aniua.com/
Writing library : core 118 r2085+614 d1cc25d
Encoding settings : cabac=1 / ref=9 / deblock=1:-2:-2 / analyse=0x3:0x133 / me=umh / subme=9 / psy=1 / fade_compensate=0.00 / psy_rd=0.80:0.00 / mixed_ref=1 / me_range=24 / chroma_me=1 / trellis=2 / 8x8dct=1 / cqm=0 / deadzone=21,11 / fast_pskip=1 / chroma_qp_offset=-2 / threads=6 / sliced_threads=0 / nr=0 / decimate=0 / interlaced=0 / bluray_compat=0 / constrained_intra=0 / fgo=0 / bframes=8 / b_pyramid=2 / b_adapt=2 / b_bias=0 / direct=1 / weightb=1 / open_gop=0 / weightp=2 / keyint=250 / keyint_min=23 / scenecut=40 / intra_refresh=0 / rc=crf / mbtree=0 / crf=15.6 / qcomp=0.70 / qpmin=9 / qpmax=38 / qpstep=4 / ip_ratio=1.40 / pb_ratio=1.30 / aq=1:0.90
Language : Ukrainian
Default : Yes
Forced : Yes

Audio
ID : 2
Format : AC-3
Format/Info : Audio Coding 3
Mode extension : CM (complete main)
Format settings, Endianness : Big
Muxing mode : Header stripping
Codec ID : A_AC3
Duration : 24mn 13s
Bit rate mode : Constant
Bit rate : 256 Kbps
Channel(s) : 2 channels
Channel positions : Front: L R
Sampling rate : 48.0 KHz
Bit depth : 16 bits
Compression mode : Lossy
Stream size : 44.3 MiB (10%)
Title : Hennessi and Pika
Language : Ukrainian
Default : Yes
Forced : Yes

Text
ID : 3
Format : ASS
Codec ID : S_TEXT/ASS
Codec ID/Info : Advanced Sub Station Alpha
Compression mode : Lossless
Title : Signs by MadGuy
Language : Ukrainian
Default : Yes
Forced : Yes


13.10.2014 - Реліз Оновлено - Додано Епізод 02


Авторський реліз (завантажувати можна без реєстрації)
 Трекер:    Зареєстрований   

Завантажити / скачати аніме українською



відео для новачків



 Зареєстрований:   2014-10-13 19:50
 Розмір:   1.02 GB 
 Оцінка аніме:   10/10 (Голосів: 3)
   
Arch Enemy 
VIP


З нами з: 30.08.12
Востаннє: 14.08.17
Повідомлень: 644

2014-10-13 19:51  
Реліз Оновлено - Додано Епізод 02

Ваш часовий пояс: GMT + 2 Години

Нова тема   Відповісти