Ритуал / Хлопчина / Boy (2011) 720p Eng | Sub Ukr

Нові коментарі

Нова тема   Відповісти
Автор Повідомлення
wolesj 
VIP


З нами з: 15.07.12
Востаннє: 25.01.20
Повідомлень: 755

2014-09-07 17:39  
Ритуал / Хлопчина / Boy (2011) 720p Eng | Sub Ukr

Ритуал / Хлопчина / Boy (2011) 720p Eng | Sub Ukr


Жанр: драма, пригодницький
Країна: США



Кінокомпанія: Blow Gun Films & ReKon Productions
Режисер: Топаз Адізес / Topaz Adizes
Актори: Фінн Ґрін / Finn Greene, Джефф Уеллс / Jeff Wells

Сюжет:
Посвята в доросле життя назавжди змінить 10-річного хлопчину.
Фільм засновано на реальних подіях.


Тривалість: 00:09:30
Якість:
Відео:
кодек:
розмір кадру: 1264 x 528
бітрейт: 1 901 Kbps

Аудіо:
мова: англійська
переклад: оригінал
кодек: MP3
бітрейт: 126 Kbps

Субтитри:
мова: українська (власний переклад)
тип: програмні (м'які)
формат: *.srt
Скріншоти







Звіт Info:

Complete name : Boy (2011).avi
Format : AVI
Format/Info : Audio Video Interleave
File size : 139 MiB
Duration : 9mn 30s
Overall bit rate mode : Variable
Overall bit rate : 2 040 Kbps
Writing application : VirtualDubMod 1.5.10.2 (build 2540/release)
Writing library : VirtualDubMod build 2540/release

Video
ID : 0
Format : MPEG-4 Visual
Format profile : Advanced [email protected]
Format settings, BVOP : 2
Format settings, QPel : No
Format settings, GMC : No warppoints
Format settings, Matrix : Default (H.263)
Muxing mode : Packed bitstream
Codec ID :
Codec ID/Hint :
Duration : 9mn 30s
Bit rate : 1 901 Kbps
Width : 1 264 pixels
Height : 528 pixels
Display aspect ratio : 2.40:1
Frame rate : 23.976 fps
Color space : YUV
Chroma subsampling : 4:2:0
Bit depth : 8 bits
Scan type : Progressive
Compression mode : Lossy
Bits/(Pixel*Frame) : 0.119
Stream size : 129 MiB (93%)
Writing library : 1.2.1 (UTC 2008-12-04)

Audio
ID : 1
Format : MPEG Audio
Format version : Version 1
Format profile : Layer 3
Mode : Joint stereo
Mode extension : MS Stereo
Codec ID : 55
Codec ID/Hint : MP3
Duration : 9mn 30s
Bit rate mode : Variable
Bit rate : 126 Kbps
Minimum bit rate : 32.0 Kbps
Channel(s) : 2 channels
Sampling rate : 48.0 KHz
Compression mode : Lossy
Stream size : 8.59 MiB (6%)
Alignment : Aligned on interleaves
Interleave, duration : 24 ms (0.58 video frame)
Interleave, preload duration : 146 ms
Writing library : LAME3.98r
Encoding settings : -m j -V 5 -q 2 -lowpass 16.5 --vbr-new -b 32
Джерело:
Особиста оцінка: 8 - мені сподобалося


Золотий реліз (завантажене не впливає на рейтинг)
 Трекер:    Зареєстрований   

Завантажити / скачати фільм українською



відео для новачків



 Зареєстрований:   2014-09-07 17:39
 Розмір:   139 MB 
 Оцінка фільму:   7.8/10 (Голосів: 4)
   
wolesj 
VIP


З нами з: 15.07.12
Востаннє: 25.01.20
Повідомлень: 755

2014-09-07 17:48  
В титрах помилка щодо року:

ALL RIGHTS RESERVED © MMXXI

hetzendorf 
Попереджень: 2
Попереджень: 2 


З нами з: 23.07.15
Востаннє: 28.01.20
Повідомлень: 2652

2019-08-17 00:07  
Взагалі ні про що @[email protected]
1/10

wolesj 
VIP


З нами з: 15.07.12
Востаннє: 25.01.20
Повідомлень: 755

2019-08-17 08:20  
hetzendorf написано:
Взагалі ні про що @[email protected]


Розумію, 9,5 хвилин надто мало, щоб щось зрозуміти Happy Happy

hetzendorf 
Попереджень: 2
Попереджень: 2 


З нами з: 23.07.15
Востаннє: 28.01.20
Повідомлень: 2652

2019-08-17 17:54  
wolesj написано:
мало, щоб щось зрозуміти

Ви знущаєтеся? Усерйоз гадаєте, хтось може не зрозуміти цієї туфти? Маєте мене за ідіота?

Ваш часовий пояс: GMT + 2 Години

Нова тема   Відповісти