Нариси древнього міста (30 серій) (2014) 1080р

Нові коментарі

Нова тема   Відповісти
Автор Повідомлення
rumsasha 
Частий відвідувач


З нами з: 31.01.09
Востаннє: 13.10.17
Повідомлень: 32

2014-09-05 22:28  
Нариси древнього міста (30 серій) (2014) 1080р

Нариси древнього міста (30 серій) (2014) 1080р


Жанр: документальний, історичний, біографічний
Країна: Україна

Телеканал / кіностудія: Студія "Олексфільм"
Режисер: Олександр Румянцев
Актори: Софія Галецька, Олександр Румянцев

Сюжет:
"Нариси древнього міста" - проект, створений київською студією "Олексфільм" у форматі щотижневих випусків на YouTube. Кожної п'ятниці ведучі - Олександр та Софія - змагаються між собою, хто краще знає Київ - корінний киянин чи приїжджа дівчина? Ну а глядачі мають змогу не лише дізнатися про цікаві місця, пам'ятки, будинки та особистості Древнього міста, але й показати свої знання, беручи участь в інтерактивах кожного епізоду. Наприкінці сезону найактивнішого учасника чекає приз!


Тривалість: Одна серія - 4-5 хв (Перша - 5:53, в цілому - 30 серій)
Якість: 1080р
Відео:
кодек:
розмір кадру: 1920х1080
бітрейт: 16,7 Мб/с

УВАГА! 15.09.2014 ТОРРЕНТ-ФАЙЛ ОНОВЛЕНО! ДОДАНО 2 СЕРІЮ.


Аудіо:
мова: українська
переклад: оригінал
кодек: 2.0
бітрейт: 192 кб/с
Info
Код:

General
Complete name                            : D:\Videos\COMPLETE\Narysy (1 season)\Narysy_s1e1.mp4
Format                                   : MPEG-4
Format profile                           : Base Media / Version 2
Codec ID                                 : mp42
File size                                : 710 MiB
Duration                                 : 5mn 53s
Overall bit rate mode                    : Variable
Overall bit rate                         : 16.9 Mbps
Encoded date                             : UTC 2014-09-05 12:31:50
Tagged date                              : UTC 2014-09-05 12:31:50

Video
ID                                       : 2
Format                                   : AVC
Format/Info                              : Advanced Video Codec
Format profile                           : [email protected]
Format settings, CABAC                   : Yes
Format settings, ReFrames                : 3 frames
Codec ID                                 : avc1
Codec ID/Info                            : Advanced Video Coding
Duration                                 : 5mn 53s
Bit rate mode                            : Variable
Bit rate                                 : 16.7 Mbps
Maximum bit rate                         : 24.0 Mbps
Width                                    : 1 920 pixels
Height                                   : 1 080 pixels
Display aspect ratio                     : 16:9
Frame rate mode                          : Constant
Frame rate                               : 29.970 fps
Standard                                 : NTSC
Color space                              : YUV
Chroma subsampling                       : 4:2:0
Bit depth                                : 8 bits
Scan type                                : Progressive
Bits/(Pixel*Frame)                       : 0.268
Stream size                              : 702 MiB (99%)
Language                                 : English
Encoded date                             : UTC 2014-09-05 12:31:50
Tagged date                              : UTC 2014-09-05 12:31:50

Audio
ID                                       : 1
Format                                   :
Format/Info                              : Advanced Audio Codec
Format profile                           : LC
Codec ID                                 : 40
Duration                                 : 5mn 53s
Bit rate mode                            : Constant
Bit rate                                 : 192 Kbps
Channel(s)                               :  channel0
Channel(s)_Original                      : 2 channels
Channel positions                        : Front: L R
Sampling rate                            : 48.0 KHz
Compression mode                         : Lossy
Stream size                              : 8.09 MiB (1%)
Language                                 : English
Encoded date                             : UTC 2014-09-05 12:31:50
Tagged date                              : UTC 2014-09-05 12:31:50
Скріншоти



Джерело: Студія "Олексфільм"
Особиста оцінка: 10 - без зайвих вагань рекомендую всім!


Золотий реліз (завантажене не впливає на рейтинг)
 Трекер:    Зареєстрований   

Завантажити / скачати фільм українською



відео для новачків



 Зареєстрований:   2014-09-15 21:22
 Розмір:   1.18 GB 
 Оцінка фільму:   9.8/10 (Голосів: 4)
   
Konfucius 
Управління
Управління


З нами з: 30.09.07
Востаннє: 23.10.17
Повідомлень: 4985

2014-09-09 20:54  
rumsasha написано:
Тривалість: Одна серія - 4-5 хв (Перша - 5:53)

Скільки тут серій? Напишіть в заголовку.

Добавте Info.

Ваш часовий пояс: GMT + 2 Години

Нова тема   Відповісти