Бетмен майбутнього: Повернення Джокера/ Batman Beyond: Return of the Joker (2000) 1080p Eng | Sub Ukr/Eng

Нові коментарі

Нова тема   Відповісти
Останній раз роздавалося Ur (2017-05-21)

Увійдіть, щоб проголосувати
Автор Повідомлення
Explosive Boy 
Свій


З нами з: 02.01.11
Востаннє: 20.08.17
Повідомлень: 87

2014-08-22 13:51  
Бетмен майбутнього: Повернення Джокера/ Batman Beyond: Return of the Joker (2000) 1080p Eng | Sub Ukr/Eng

Бетмен майбутнього: Повернення Джокера/ Batman Beyond: Return of the Joker (2000) 1080p Eng | Sub Ukr/Eng


Жанр: анімація, екшн, кримінальний
Країна: США, Бразилія



Кінокомпанія: Warner Bros. Family Entertainment
Режисер: Курт Ґеда (Curt Geda)
Актори: Вілл Фрідл (Will Friedle), Кевін Конрой (Kevin Conroy), Марк Хемілл (Mark Hamill), Енджі Хармон (Angie Harmon) та інші

Сюжет:
Джокер повертається з наміром помститись. Теперішньому Темному Лицареві потрібні відповіді на питання, як самотужки перемогти найвідомішого злочинця міста Готем.


Тривалість: 01:16:47
Якість:
Відео:
розмір кадру: 1440 х 1080
бітрейт: 1481 кб/с

Аудіо:
мова: англійська
переклад: оригінал
кодек: 2.0
бітрейт: 64 кб/с

Субтитри:
Авторські
мова: українська
тип: програмні (м'які)
формат: *.srt

Субтитри:
мова: англійська
тип: програмні (м'які)
формат: *.srt
Info
General
Complete name : C:\Video\Batman Beyond Return of the Joker 2000 1080p BluRay Ratzz\Batman Beyond Return of the Joker 2000 1080p BluRay .mp4
Format : MPEG-4
Format profile : Base Media
Codec ID : isom
File size : 849 MiB
Duration : 1h 16mn
Overall bit rate mode : Variable
Overall bit rate : 1 546 Kbps
Encoded date : UTC 2012-03-01 16:51:50
Tagged date : UTC 2012-03-01 16:51:50

Video
ID : 1
Format : AVC
Format/Info : Advanced Video Codec
Format profile : [email protected]
Format settings, CABAC : Yes
Format settings, ReFrames : 3 frames
Codec ID : avc1
Codec ID/Info : Advanced Video Coding
Duration : 1h 16mn
Bit rate mode : Variable
Bit rate : 1 481 Kbps
Maximum bit rate : 25.0 Mbps
Width : 1 440 pixels
Height : 1 080 pixels
Display aspect ratio : 4:3
Frame rate mode : Constant
Frame rate : 23.976 fps
Color space : YUV
Chroma subsampling : 4:2:0
Bit depth : 8 bits
Scan type : Progressive
Bits/(Pixel*Frame) : 0.040
Stream size : 813 MiB (96%)
Title : Batman Beyond Return of the Joker 2000 1080p BluRay
Writing library : core 120 r2120 0c7dab9
Encoding settings : cabac=1 / ref=3 / deblock=1:0:0 / analyse=0x3:0x113 / me=hex / subme=7 / psy=1 / psy_rd=1.00:0.00 / mixed_ref=1 / me_range=16 / chroma_me=1 / trellis=1 / 8x8dct=1 / cqm=0 / deadzone=21,11 / fast_pskip=1 / chroma_qp_offset=-2 / threads=6 / sliced_threads=0 / nr=0 / decimate=1 / interlaced=0 / bluray_compat=0 / constrained_intra=0 / bframes=3 / b_pyramid=0 / b_adapt=1 / b_bias=0 / direct=1 / weightb=1 / open_gop=0 / weightp=2 / keyint=240 / keyint_min=24 / scenecut=40 / intra_refresh=0 / rc_lookahead=40 / rc=2pass / mbtree=1 / bitrate=1481 / ratetol=1.0 / qcomp=0.60 / qpmin=0 / qpmax=69 / qpstep=4 / cplxblur=20.0 / qblur=0.5 / vbv_maxrate=25000 / vbv_bufsize=25000 / nal_hrd=vbr / ip_ratio=1.40 / aq=1:1.00
Encoded date : UTC 2012-03-01 16:51:50
Tagged date : UTC 2012-03-01 16:52:17

Audio
ID : 2
Format :
Format/Info : Advanced Audio Codec
Format profile : HE- / LC
Codec ID : 40
Duration : 1h 16mn
Bit rate mode : Variable
Bit rate : 64.0 Kbps
Maximum bit rate : 71.4 Kbps
Channel(s) : 2 channels
Channel positions : Front: L R
Sampling rate : 48.0 KHz / 24.0 KHz
Compression mode : Lossy
Stream size : 35.1 MiB (4%)
Language : English
Encoded date : UTC 2012-03-01 16:52:12
Tagged date : UTC 2012-03-01 16:52:17

Menu
00:00:00.000 : 00:00:00.000
00:08:09.489 : 00:08:09.489
00:10:31.130 : 00:10:31.130
00:11:43.703 : 00:11:43.703
00:14:36.292 : 00:14:36.292
00:19:54.193 : 00:19:54.193
00:21:13.397 : 00:21:13.397
00:24:11.617 : 00:24:11.617
00:25:06.463 : 00:25:06.463
00:30:34.833 : 00:30:34.833
00:34:11.508 : 00:34:11.508
00:45:02.742 : 00:45:02.742
00:46:11.560 : 00:46:11.560
00:47:52.828 : 00:47:52.828
00:51:26.834 : 00:51:26.834
00:53:45.431 : 00:53:45.431
00:59:41.286 : 00:59:41.286
01:11:35.708 : 01:11:35.708
Скріншоти




Джерело:
Особиста оцінка: 9 - давно не бачив настільки якісне кіно


Золотий реліз (завантажене не впливає на рейтинг)
 Трекер:    Зареєстрований   

Завантажити / скачати мультфільм українською



відео для новачків



 Зареєстрований:   2014-08-23 19:39
 Розмір:   849 MB 
 Оцінка мультфільму:   10/10 (Голосів: 10)
   
Кіндрат Книш 
VIP


З нами з: 13.02.13
Востаннє: 20.08.17
Повідомлень: 752

2014-08-23 20:31  
Залийте скріншоти по-новому.
dima77777 
Поважний учасник


З нами з: 29.11.12
Востаннє: 23.08.17
Повідомлень: 223

2014-08-23 22:49  
а цей мультик показували на Українських каналах?
Explosive Boy 
Свій


З нами з: 02.01.11
Востаннє: 20.08.17
Повідомлень: 87

2014-08-24 13:26  
Колись давно показували серіал. Про цю повнометражку я не чув.
Greskiv 
Частий відвідувач


З нами з: 01.04.13
Востаннє: 23.08.17
Повідомлень: 43

2016-05-17 12:34  
Роздайте, будьте ласкаві.
Ваш часовий пояс: GMT + 2 Години

Нова тема   Відповісти