Стріла (Сезон 1) / Arrow (Season 1) (2012-2013) 720p Ukr/Eng

Нові коментарі

Нова тема   Відповісти
Автор Повідомлення
Dark Invader 
Модератор відео


З нами з: 06.01.11
Востаннє: 29.11.20
Повідомлень: 3007

2014-08-21 17:44  
Стріла (Сезон 1) / Arrow (Season 1) (2012-2013) 720p Ukr/Eng

Стріла (Сезон 1) / Arrow (Season 1) (2012-2013) 720p Ukr/Eng
Альтернативний постер:
Стріла (Сезон 1) / Arrow (Season 1) (2012-2013) 720p Ukr/Eng
Жанр: драма, пригодницький, екшн
Країна: США



Кінокомпанія: Berlanti Productions, DC Entertainment, Warner Bros. Television / The CW
Режисер: Девід Наттер та інші
Актори: Стівен Амелл, Кеті Кессіді, Колін Доннел, Дейвід Ремзі, Вілла Голенд, Пол Блекторн, Сюзанна Томпсон, Ману Беннетт, Колтон Гейнс та інші

Сюжет:
Після корабельної аварії плейбоя-мільярдера Олівера Квіна, зниклого безвісти, оголошують померлим. Але через п'ять років його знаходять живим на безлюдному острові в Тихому океані. Коли він повертається додому в Старлинг-сіті, його зустрічає віддана мати Мойра, улюблена сестра Теа і кращий друг Томмі, які відчувають, що випробування на острові змінили Олівера. Олівер приховує правду про те, якою людиною він став, але відчайдушно хоче спокутувати провину за свої минулі вчинки. Зокрема, він хоче помиритися зі своєю колишньою дівчиною Лорел Ленс. Щоб виправити помилки своєї сім'ї, боротися з бідами суспільства і повернути Старлінг-сіті колишню славу, Олівер потай стає героєм на прізвисько - Стріла, одягненим в зелений костюм з капюшоном і збройним луком і стрілами.


Тривалість: 1 серія: ~ 43 хв. (цілком серій: 23)
Перелік серій
01. Pilot
02. Honor Thy Father
03. Lone Gunmen
04. An Innocent Man
05. Damaged
06. Legacies
07. Muse of Fire
08. Vendetta
09. Year's End
10. Burned
11. Trust But Verify
12. Vertigo
13. Betrayal
14. The Odyssey
15. Dodger
16. Dead to Rights
17. The Huntress Returns
18. Salvation
19. Unfinished Business
20. Home Invasion
21. The Undertaking
22. Darkness on the Edge of Town
23. Sacrifice
Якість: 720p [PublicHD]
Відео:
кодек:
розмір кадру: 1 280 х 720
бітрейт: ~ 5 800 кб/с

Аудіо # 1:
мова: українська
переклад: багатоголосий закадровий
кодек: 2.0
бітрейт: 192 кб/с

Аудіо # 2:
мова: англійська
переклад: оригінал
кодек: 5.1
бітрейт: 1 500 кб/с

Переклад і озвучення виконано:
студією "Так Треба Продакшн" на замовлення телеканалу

Info
General
Unique ID : 218433670710605858466809678217596120719 (0xA454CB7351FD4B3E9BAE9B5DD3782E8F)
Complete name : D:\Нова папка\Arrow - Season 1 (2012-2013) 720p [Ukr, Eng] [Hurtom]\Arrow - S01E01 (2012-2013) 720p [Ukr, Eng] [Hurtom].
Format :
Format version : Version 4 / Version 2
File size : 2.24 GiB
Duration : 42mn 37s
Overall bit rate : 7 519 Kbps
Encoded date : UTC 2014-08-21 15:07:15
Writing application : v7.1.0 ('Good Love') 32bit built on Jul 27 2014 12:59:18
Writing library : libebml v1.3.0 + v1.4.1
DURATION : 00:42:36.576000000
NUMBER_OF_FRAMES : 79893
NUMBER_OF_BYTES : 61357824
_STATISTICS_WRITING_APP : v7.1.0 ('Good Love') 32bit built on Jul 27 2014 12:59:18
_STATISTICS_WRITING_DATE_UTC : 2014-08-21 15:07:15
_STATISTICS_TAGS : BPS DURATION NUMBER_OF_FRAMES NUMBER_OF_BYTES

Video
ID : 1
Format : AVC
Format/Info : Advanced Video Codec
Format profile : [email protected]
Format settings, CABAC : Yes
Format settings, ReFrames : 5 frames
Codec ID : V_MPEG4/ISO/AVC
Duration : 42mn 37s
Bit rate : 5 820 Kbps
Width : 1 280 pixels
Height : 720 pixels
Display aspect ratio : 16:9
Frame rate mode : Constant
Frame rate : 23.976 fps
Color space : YUV
Chroma subsampling : 4:2:0
Bit depth : 8 bits
Scan type : Progressive
Bits/(Pixel*Frame) : 0.263
Stream size : 1.69 GiB (75%)
Title :
Writing library : core 138 r2358 9e941d1
Encoding settings : cabac=1 / ref=5 / deblock=1:0:0 / analyse=0x3:0x133 / me=umh / subme=7 / psy=1 / psy_rd=1.00:0.00 / mixed_ref=1 / me_range=16 / chroma_me=1 / trellis=1 / 8x8dct=1 / cqm=0 / deadzone=21,11 / fast_pskip=0 / chroma_qp_offset=-2 / threads=12 / lookahead_threads=2 / sliced_threads=0 / nr=0 / decimate=1 / interlaced=0 / bluray_compat=0 / constrained_intra=0 / bframes=3 / b_pyramid=2 / b_adapt=1 / b_bias=0 / direct=1 / weightb=1 / open_gop=0 / weightp=2 / keyint=250 / keyint_min=23 / scenecut=40 / intra_refresh=0 / rc_lookahead=40 / rc=2pass / mbtree=1 / bitrate=5820 / ratetol=1.0 / qcomp=0.60 / qpmin=0 / qpmax=69 / qpstep=4 / cplxblur=20.0 / qblur=0.5 / ip_ratio=1.40 / aq=1:1.00
Language : English
Default : Yes
Forced : No
DURATION : 00:42:36.475000000
NUMBER_OF_FRAMES : 61294
NUMBER_OF_BYTES : 1859098478
_STATISTICS_WRITING_APP : v7.1.0 ('Good Love') 32bit built on Jul 27 2014 12:59:18
_STATISTICS_WRITING_DATE_UTC : 2014-08-21 15:07:15
_STATISTICS_TAGS : BPS DURATION NUMBER_OF_FRAMES NUMBER_OF_BYTES

Audio #1
ID : 2
Format : AC-3
Format/Info : Audio Coding 3
Mode extension : CM (complete main)
Format settings, Endianness : Big
Codec ID : A_AC3
Duration : 42mn 37s
Bit rate mode : Constant
Bit rate : 192 Kbps
Channel(s) : 2 channels
Channel positions : Front: L R
Sampling rate : 48.0 KHz
Bit depth : 16 bits
Compression mode : Lossy
Stream size : 58.5 MiB (3%)
Title : Так Треба Продакшн
Language : Ukrainian
Default : Yes
Forced : No

Audio #2
ID : 3
Format :
Format/Info : Digital Theater Systems
Mode : 16
Format settings, Endianness : Big
Codec ID : A_DTS
Duration : 42mn 37s
Bit rate mode : Constant
Bit rate : 1 509 Kbps
Channel(s) : 6 channels
Channel positions : Front: L C R, Side: L R, LFE
Sampling rate : 48.0 KHz
Bit depth : 24 bits
Compression mode : Lossy
Stream size : 460 MiB (20%)
Title :
Language : English
Default : No
Forced : No

Menu
00:00:00.000 : en:00:00:00.000
00:01:55.449 : en:00:01:55.449
00:10:37.554 : en:00:10:37.554
00:18:16.554 : en:00:18:16.554
00:25:39.037 : en:00:25:39.037
00:35:17.240 : en:00:35:17.240
00:42:06.524 : en:00:42:06.524
Торрент-файл оновлено (04.11.2014)
Додано 16-23 серії.
Повний сезон!


Скріншоти:


Джерело:
Особиста оцінка: 10 - без зайвих вагань рекомендую всім любителям кінокоміксів!

Цитата:
Подяки:
За запис Sando7, OlegCena та slavik_v_z.
За синхронізацію patriot2305.
За постери Лунсар.


Бронзовий реліз (на рейтинг впливає 75% завантаженого)
 Трекер:    Зареєстрований   

Завантажити / скачати серіал українською



відео для новачків



 Зареєстрований:   2014-11-04 21:30
 Розмір:   51.49 GB 
 Оцінка серіалу:   9.1/10 (Голосів: 37)
   
Мельниченко 
Свій


З нами з: 27.08.09
Востаннє: 02.07.16
Повідомлень: 145

2014-08-23 15:14  
А, до речі, нічого такий серіальчик Happy
Я вже думав щоб його подивитись, а тут зачепило Happy

Dark Invader 
Модератор відео


З нами з: 06.01.11
Востаннє: 29.11.20
Повідомлень: 3007

2014-08-23 16:07  
Мельниченко, далі буде ще цікавіше, це тільки початок. Wink (2)
Мельниченко 
Свій


З нами з: 27.08.09
Востаннє: 02.07.16
Повідомлень: 145

2014-10-19 22:54  
Що там з продовженням?
Dark Invader 
Модератор відео


З нами з: 06.01.11
Востаннє: 29.11.20
Повідомлень: 3007

2014-10-20 09:30  
Мельниченко написано:
Що там з продовженням?

Сам не знаю. Реліз в SD ше не оновлювався (доріжки звітам беру).

Dark Invader 
Модератор відео


З нами з: 06.01.11
Востаннє: 29.11.20
Повідомлень: 3007

2014-11-04 21:30  
Торрент-файл оновлено (04.11.2014)
Додано 16-23 серії.
Повний сезон!

Прокурор 
VIP


З нами з: 24.06.13
Востаннє: 29.11.20
Повідомлень: 376

2015-01-26 16:59  
Цікавий серіал!
Другий та третій сезони плануються?

Robar III 
Забанено
Забанено


З нами з: 18.08.11
Востаннє: 01.05.20
Повідомлень: 4905

2015-02-20 15:00  
Другий та третій сезони плануються?
Dark Invader 
Модератор відео


З нами з: 06.01.11
Востаннє: 29.11.20
Повідомлень: 3007

2015-02-20 15:09  
Прокурор, Robar III
Це треба питати на сайті каналу ICTV.

тадей 
Свій


З нами з: 05.04.13
Востаннє: 06.09.20
Повідомлень: 56

2015-03-01 01:50  
Супер серіал. Сюжет динамічний та цікавий, швидкий розвиток дій, хоча бували і посередні серії, але вони не помітні на фоні серіалу загалом. Рекомендую подивитися фанатам коміксів і не тільки.
VovaKuba 
Новенький


З нами з: 01.04.12
Востаннє: 22.10.20
Повідомлень: 4

2015-03-25 18:32  
Станьте хтось будь ласка на роздачу!!!
katya7771999 
Новенький


З нами з: 17.02.13
Востаннє: 20.04.15
Повідомлень: 6

2015-04-07 16:23  
На ICTV наче вже припинили показ 1 сезону "Стріли". А жаль, я так чекала продовження українською! Думаю, чекатиму і даліHappy
Robar III 
Забанено
Забанено


З нами з: 18.08.11
Востаннє: 01.05.20
Повідомлень: 4905

2015-04-22 12:01  
Було б гарно щоб UA team взялись за локалізацію наступних сезонів)
fayer 
Новенький


З нами з: 02.03.08
Востаннє: 28.11.20
Повідомлень: 1

2015-11-24 00:20  
Сіди верніться !) Wink (2)
MrRyanCooper 
VIP


З нами з: 23.08.12
Востаннє: 23.10.20
Повідомлень: 519

2016-02-09 11:44  
Robar III написано:
Було б гарно щоб UA team взялись за локалізацію наступних сезонів)

ICTV зараз транслює з вівторка по п'ятницю включно (о 5 ранку), може і другий потім покажуть, хоча я сплю в цей час і не знаю, може це 2-й сезон :-)

Nahalist 
VIP


З нами з: 12.12.13
Востаннє: 29.11.20
Повідомлень: 318

2016-03-09 20:33  
MrRyanCooper написано:
хоча я сплю в цей час і не знаю, може це 2-й сезон :-)

Ні, це перший, і 18-го числа закінчиться, може далі 2-й покажуть, хоча я сумніваюсь.

redoyg 
Новенький


З нами з: 20.01.16
Востаннє: 16.11.20
Повідомлень: 6

2016-06-14 10:48  
Половину серій взагалі не хоче качати, просто на 49% спинилося й усе.
badanishe 
Новенький


З нами з: 27.06.17
Востаннє: 11.07.19
Повідомлень: 1

2017-09-16 18:02  
Ооооо, чого ж ніхто не роздає?
Anubys 
VIP


З нами з: 09.11.09
Востаннє: 28.11.20
Повідомлень: 365

2017-09-18 20:40  
Скажіть, а 1080p хтось буде викладати?
Luzohid 
Свій


З нами з: 14.09.15
Востаннє: 19.10.20
Повідомлень: 94

2017-11-28 10:56  
Благо хоть це качається, а то avi роздача не хоче :-(
Purlogin 
Свій


З нами з: 27.05.15
Востаннє: 25.10.20
Повідомлень: 67

2017-12-27 21:08  
Капєц скільки Стівену Амелу довелося тренуватися для цього серіалу, зазвичай акторам треба тільки текст сценарію вчити, а в цьому випадку не тільки слова. Ну а так, то круте кіно, не знаю як далі, але перший сезон гуд.
AlexVE 
Новенький


З нами з: 04.05.19
Востаннє: 29.11.20
Повідомлень: 20

2020-07-12 21:01  
badanishe
намагаюсь лишатись на роздачі

Andrey-2005 
Свій


З нами з: 13.05.16
Востаннє: 29.11.20
Повідомлень: 55

2020-08-26 09:42  
Інші сезони будуть озвучувати?
Ваш часовий пояс: GMT + 2 Години

Нова тема   Відповісти