Крижане серце / Frozen (2013) 720p-mini [60fps]

Нові коментарі

Нова тема   Відповісти
Автор Повідомлення
Drool 
VIP


З нами з: 17.04.10
Востаннє: 16.08.17
Повідомлень: 1366

2014-08-20 15:42  
Крижане серце / Frozen (2013) 720p-mini [60fps]

Жанр: анімація, пригодницький, комедія
Країна: США



Кінокомпанія: Walt Disney Animation Studios, Walt Disney Pictures
Режисер: Кріс Бак, Дженніфер Лі
Актори: Крістен Белл, Ідіна Мензел, Джонатан Ґрофф, Джош Ґад, Сантіно Фонтана, Алан Тьюдік, Кіаран Гайндс, Кріс Вільямс, Стівен Джей Андерсон, Мая Вілсон

Сюжет:
Коли стародавнє пророцтво здійснюється і королівство занурюється в обійми вічної зими, троє безстрашних героїв - принцеса Анна, відважний Крістофф і його вірний олень Свен - відправляються в гори, щоб знайти сестру Анни, Ельзу, яка може зняти з країни закляття. По дорозі їх чекає безліч захоплюючих сюрпризів і захоплюючих пригод. Анні і Крістоффу належить об'єднатися і протистояти могутньої стихії, щоб врятувати королівство і тих, хто їм дорогий...


Тривалість: 01:42:13
Якість: 720p-mini
Відео:
кодек:
розмір кадру: 1280x570
бітрейт: 5590 кб/с
частота кадрів: 59.940 кадрів/с

Аудіо:
мова: українська
переклад: професійний дубльований
кодек: 5.1
бітрейт: 384 кб/с

Джерело озвучення:


Субтитри:
мова: українська (форсовані - написи)
тип: програмні (м'які)
формат: *.srt
Info
General
Unique ID : 174705429411425857783703038518269933970 (0x836F0AB31492FA6E861BD9F1FA617992)
Complete name : /mnt/disk_d/Video/Frozen.2013.Ukr.Dub..720p-mini.60fps.
Format :
Format version : Version 4 / Version 2
File size : 4.35 GiB
Duration : 1h 42mn
Overall bit rate : 6 095 Kbps
Movie name : Крижане серце / Frozen (2013) 720p-mini [60 FPS] | video by EXCLUSIF
Encoded date : UTC 2010-02-22 21:41:31
Writing application : mkvmerge v6.1.0 ('Old Devil') built on Apr 14 2013 12:25:55
Writing library : libebml v1.3.0 + libmatroska v1.4.0
TITLE : Крижане серце / Frozen (2013) 720p-mini -=UAGet=-
ARTIST : Крістен Белл, Ідіна Мензел, Джонатан Ґрофф, Джош Ґад, Сантіно Фонтана, Алан Тьюд
DIRECTOR : Кріс Бак, Дженніфер Лі
DATE_RELEASED : 2013
GENRE : анімація, пригодницький, комедія
SYNOPSIS : Коли стародавнє пророцтво здійснюється і королівство занурюється в обійми вічної зими, троє безстрашних героїв - принцеса Анна, відважний Крістофф і його вірний олень Свен - відправляються в гори, щоб знайти сестру Анни, Ельзу, яка може зняти з країни закляття. По дорозі їх чекає безліч захоплюючих сюрпризів і захоплюючих пригод. Анні і Крістоффу належить об'єднатися і протистояти могутньої стихії, щоб врятувати королівство і тих, хто їм дорогий...

Video
ID : 1
Format : AVC
Format/Info : Advanced Video Codec
Format profile : [email protected]
Format settings, CABAC : Yes
Format settings, ReFrames : 9 frames
Codec ID : V_MPEG4/ISO/AVC
Duration : 1h 42mn
Bit rate : 5 590 Kbps
Width : 1 280 pixels
Height : 570 pixels
Display aspect ratio : 2.25:1
Frame rate : 59.940 fps
Color space : YUV
Chroma subsampling : 4:2:0
Bit depth : 8 bits
Scan type : Progressive
Bits/(Pixel*Frame) : 0.128
Stream size : 3.99 GiB (92%)
Title : Крижане серце / Frozen (2013) 720p-mini [60 FPS] | video by EXCLUSIF
Writing library : core 138 r2358 9e941d1
Encoding settings : cabac=1 / ref=9 / deblock=1:-3:-2 / analyse=0x3:0x133 / me=umh / subme=10 / psy=1 / psy_rd=1.10:0.15 / mixed_ref=1 / me_range=32 / chroma_me=1 / trellis=2 / 8x8dct=1 / cqm=0 / deadzone=21,11 / fast_pskip=0 / chroma_qp_offset=-3 / threads=6 / lookahead_threads=1 / sliced_threads=0 / nr=0 / decimate=0 / interlaced=0 / bluray_compat=0 / constrained_intra=0 / bframes=6 / b_pyramid=2 / b_adapt=2 / b_bias=0 / direct=1 / weightb=1 / open_gop=0 / weightp=2 / keyint=599 / keyint_min=59 / scenecut=40 / intra_refresh=0 / rc=crf / mbtree=0 / crf=16.0 / qcomp=0.60 / qpmin=0 / qpmax=69 / qpstep=4 / ip_ratio=1.40 / pb_ratio=1.30 / aq=1:0.70
Default : Yes
Forced : No

Audio
ID : 2
Format : AC-3
Format/Info : Audio Coding 3
Mode extension : CM (complete main)
Codec ID : A_AC3
Duration : 1h 42mn
Bit rate mode : Constant
Bit rate : 384 Kbps
Channel(s) : 6 channels
Channel positions : Front: L C R, Side: L R, LFE
Sampling rate : 48.0 KHz
Bit depth : 16 bits
Compression mode : Lossy
Stream size : 281 MiB (6%)
Title : Рідна мова ( 5.1 @ 384 kbps) iTunes
Language : Ukrainian
Default : Yes
Forced : Yes

Text
ID : 3
Format : UTF-8
Codec ID : S_TEXT/UTF8
Codec ID/Info : UTF-8 Plain Text
Title : Українські (форсовані)
Language : Ukrainian
Default : Yes
Forced : Yes
Скріншоти




Джерело:
Особиста оцінка: 10 - без зайвих вагань рекомендую всім!
Величезна подяка за звукову доріжку та форсовані саби пану 11FrYkT


 Трекер:    Зареєстрований   

Завантажити / скачати мультфільм українською



відео для новачків



 Зареєстрований:   2014-08-20 15:44
 Розмір:   4.35 GB 
 Оцінка мультфільму:   9.6/10 (Голосів: 41)
   
Інші релізи
   Крижане серце / Frozen (2013) 1080p [48 fps] Ukr/Eng | Sub Eng/Fra/Esp smsfdg  7 / 0   27.59 GB   2014-08-30 20:41 
   Закрижаніла / Крижане серце / Frozen (2013) 720p Eng | Sub Ukr Gedet  4 / 0   2.47 GB   2014-07-28 19:20 
   Крижане серце / Frozen (2013) Remux 1080p Ukr/Eng | Sub Eng/Fr/Es smsfdg  2 / 0   20.41 GB   2014-07-19 21:16 
   Крижане серце / Frozen (2013) AVC BASTERD-94  9 / 0   978 MB   2014-07-07 21:30 
   Крижане серце / Frozen (2013) 1080p 3D SideBySide Ukr/Eng | Sub Eng dinosaurus  4 / 0   5.96 GB   2014-06-15 16:06 
   Крижане серце / Frozen (2013) 720p-mini Drool  10 / 0   2.16 GB   2014-05-05 16:48 
   Крижане серце / Frozen (2013) 1080p Ukr/Eng | Sub Eng 11FrYkT  16 / 1   8.01 GB   2014-04-30 10:02 
   Крижане серце / Frozen (2013) 720p Ukr/Eng | Sub Eng 11FrYkT  18 / 0   4.05 GB   2014-04-30 08:30 
   Крижане серце / Frozen (2013) Ukr/Eng | Sub Ukr/Eng Gelios  117 / 0   1.45 GB   2014-04-29 23:12 
   Крижане серце / Frozen (2013) AVC Ukr/Eng | Sub Eng 11FrYkT  10 / 0   2.14 GB   2014-04-29 23:09 
Ваш часовий пояс: GMT + 2 Години

Нова тема   Відповісти