Вольт / Bolt (2008) 720p-mini [60fps]

Нові коментарі

Нова тема   Відповісти
Автор Повідомлення
Drool 
VIP


З нами з: 17.04.10
Востаннє: 20.08.17
Повідомлень: 1373

2014-08-11 13:41  
Вольт / Bolt (2008) 720p-mini [60fps]

Жанр: анімація, пригодницький, комедія, сімейний
Країна: США



Кінокомпанія: Walt Disney Animation Studios, Walt Disney Pictures
Режисер: Байрон Говард, Кріс Вільямс
Актори: Джон Траволта, Майлі Сайрус, Сьюзі Ессмен, Марк Волтон, Малкольм МакДауелл, Джеймс Ліптон, Ґреґ Ґерманн, Дітріч Бадер, Нік Свардсон, Джей П. Ману, Дан Фоґелман, Карі Ваглґрен, Хлоя Ґрейс Морец, Ренді Савадж, Ронн Мосс

Сюжет:
Пес «Вольт» все життя знімається в телевізійному серіалі, де його герой — суперпес — рятує людство, використовуючи свої надзвичайні здібності. Сам Вольт свято вірить у власну невразливість, неймовірну силу, і уміння літати. Коли ж доля закидає його в повне небезпек Велике Місто, він все ще думає, що це — лише черговий епізод телесеріалу.


Тривалість: 01:36:21
Якість:
Відео:
кодек:
розмір кадру: 1280x720
бітрейт: 4792 кб/с
частота кадрів: 59.940 кадрів/с

Аудіо:
мова: українська
переклад: професійний дубльований
кодек: 5.1
бітрейт: 640 кб/с
Джерело озвучення:


Субтитри:
мова: українська (форсовані)
тип: програмні (м'які)
формат: *.srt
Info
General
Unique ID : 316570984135836948375841440929062385710 (0xEE295A91CB2C69D32648E881D438F82E)
Complete name : /mnt/disk_d/Video/Bolt.2008.Ukr.Dub..720p-mini.60fps.
Format :
Format version : Version 4 / Version 2
File size : 3.66 GiB
Duration : 1h 36mn
Overall bit rate : 5 436 Kbps
Movie name : Вольт / Bolt (2008) 720p-mini [60fps] [NNNB, envy]
Encoded date : UTC 2010-02-22 21:41:31
Writing application : mkvmerge v6.1.0 ('Old Devil') built on Apr 14 2013 12:25:55
Writing library : libebml v1.3.0 + libmatroska v1.4.0
Attachment : Yes / Yes / Yes

Video
ID : 1
Format : AVC
Format/Info : Advanced Video Codec
Format profile : [email protected]
Format settings, CABAC : Yes
Format settings, ReFrames : 9 frames
Codec ID : V_MPEG4/ISO/AVC
Duration : 1h 36mn
Bit rate : 4 792 Kbps
Width : 1 280 pixels
Height : 720 pixels
Display aspect ratio : 16:9
Frame rate : 59.940 fps
Color space : YUV
Chroma subsampling : 4:2:0
Bit depth : 8 bits
Scan type : Progressive
Bits/(Pixel*Frame) : 0.087
Stream size : 3.16 GiB (86%)
Title : Вольт / Bolt (2008) 720p-mini [60fps] [NNNB, envy]
Writing library : core 130 r2273 b3065e6
Encoding settings : cabac=1 / ref=9 / deblock=1:-1:-1 / analyse=0x3:0x133 / me=umh / subme=11 / psy=1 / psy_rd=1.00:0.10 / mixed_ref=1 / me_range=32 / chroma_me=1 / trellis=2 / 8x8dct=1 / cqm=0 / deadzone=21,11 / fast_pskip=0 / chroma_qp_offset=-3 / threads=12 / lookahead_threads=2 / sliced_threads=0 / nr=0 / decimate=1 / interlaced=0 / bluray_compat=0 / constrained_intra=0 / bframes=8 / b_pyramid=2 / b_adapt=2 / b_bias=0 / direct=3 / weightb=1 / open_gop=0 / weightp=2 / keyint=250 / keyint_min=25 / scenecut=40 / intra_refresh=0 / rc=2pass / mbtree=0 / bitrate=4792 / ratetol=1.0 / qcomp=0.60 / qpmin=0 / qpmax=69 / qpstep=4 / cplxblur=20.0 / qblur=0.5 / ip_ratio=1.40 / pb_ratio=1.30 / aq=2:1.00
Default : Yes
Forced : No

Audio
ID : 2
Format : AC-3
Format/Info : Audio Coding 3
Mode extension : CM (complete main)
Codec ID : A_AC3
Duration : 1h 36mn
Bit rate mode : Constant
Bit rate : 640 Kbps
Channel(s) : 6 channels
Channel positions : Front: L C R, Side: L R, LFE
Sampling rate : 48.0 KHz
Bit depth : 16 bits
Compression mode : Lossy
Stream size : 441 MiB (12%)
Title : EX 5.1 @ 640 kbps - професійний дубльований | LeDoyen Studio | Ліцензія Blu Ray
Language : Ukrainian
Default : Yes
Forced : Yes

Text
ID : 3
Format : UTF-8
Codec ID : S_TEXT/UTF8
Codec ID/Info : UTF-8 Plain Text
Title : Forced
Language : Ukrainian
Default : Yes
Forced : Yes
Скріншоти



Джерело:
Особиста оцінка: 8 - мені сподобалося


 Трекер:    Зареєстрований   

Завантажити / скачати мультфільм українською



відео для новачків



 Зареєстрований:   2014-08-11 16:43
 Розмір:   3.66 GB 
 Оцінка мультфільму:   9.6/10 (Голосів: 25)
   
Інші релізи
   Вольт / Bolt (2008) 1080p 3D [Half OverUnder] Ukr/Eng | Sub Ukr/Eng igor911  4 / 0   6.47 GB   2015-04-01 17:26 
   Вольт / Bolt (2008) [640x360] apvAltisimo  1 / 0   832 MB   2014-03-15 04:37 
   Вольт / Bolt (2008) Ukr/Eng | Sub Ukr/Eng karvai0  8 / 3   1.7 GB   2013-01-09 23:40 
   Вольт / Bolt (2008) 720p Ukr/Eng | Sub Ukr/Eng Віктор  12 / 0   3.9 GB   2012-01-10 16:36 
   Вольт / Bolt (2008) 1080p-mini Ukr/Eng | Sub Multilanguages DiGen  7 / 0   4.34 GB   2010-04-09 05:20 
   Вольт / Bolt (2008) DVD-5 УКР/ENG Romczyk  0 / 0   4.28 GB   2009-04-04 15:29 
bot 
робот


З нами з: 30.09.07
Востаннє: 26.05.05
Повідомлень: 17368

2014-08-11 13:41  
Тему перенесено з Мультфільми в HD до форуму Анонси релізів


Drool

bot 
робот


З нами з: 30.09.07
Востаннє: 26.05.05
Повідомлень: 17368

2014-08-11 16:43  
Тему перенесено з Анонси релізів до форуму Мультфільми в HD


Drool

bubuyom 
Новенький


З нами з: 24.11.12
Востаннє: 14.08.17
Повідомлень: 3

2015-01-27 22:02  
Постійно вилітає на телевізорі LG, ще такого не було за декілька років Sad (1)
Drool 
VIP


З нами з: 17.04.10
Востаннє: 20.08.17
Повідомлень: 1373

2015-01-31 02:19  
bubuyom написано:
Постійно вилітає на телевізорі LG, ще такого не було за декілька років

За декілька років багато було у цього телевізора релізів з підвищеною плавністю відео?

Ваш часовий пояс: GMT + 2 Години

Нова тема   Відповісти