Серця мого частинка / En del av mitt hjärta / Passing hearts (2004) 720p Swe | sub Ukr

Нові коментарі

Нова тема   Відповісти
Автор Повідомлення
wolesj 
VIP


З нами з: 15.07.12
Востаннє: 20.01.20
Повідомлень: 748

2014-08-09 15:17  
Серця мого частинка / En del av mitt hjärta / Passing hearts (2004) 720p Swe | sub Ukr

Серця мого частинка / En del av mitt hjärta / Passing hearts (2004) 720p Swe | sub Ukr
Додатковий постер

Жанр: драма, психологічний
Країна: Швеція



Кінокомпанія: Flodellfilm
Режисер: Юхан Брісінґер / Johan Brisinger
Актори: Макс Ендерфорс / Max Enderfors, Анжела Ковач / Angela Kovacs, Кікі Брамберґ / Kicki Bramberg, Ян Мюбранд / Jan Mybrand

Сюжет:
Підліток відвідує сім’ю, яка врятувала йому життя.


Тривалість: 00:14:04
Якість:
Відео:
кодек:
розмір кадру: 1280x720
бітрейт: 1 996 Kbps

Аудіо:
мова: шведська
переклад: оригінал
кодек: 2.0
бітрейт: 157 Kbps

Субтитри:
мова: українська (власний переклад з англійської)
тип: програмні (м'які)
формат: *.srt

Субтитри:
мова: англійська
тип: вбудовані (жорсткі)
Скріншоти








Нагороди:
Awards: Alpinale European Film Festival, Golden Unicorn Professional Short Film (2004);
Berlin International Film Festival, Panorama Audience Award - Best Short Film;
Chicago International Children's Film Festival, 2nd place, Adult's Jury Award - Live-Action Short Film or Video
Звіт Info:
Format : MPEG-4
Format profile : Base Media
Codec ID : isom
File size : 217 MiB
Duration : 14mn 4s
Overall bit rate : 2 156 Kbps
Encoded date : UTC 2010-08-06 10:31:00
Tagged date : UTC 2010-08-07 10:31:03

Video
Format : AVC
Format/Info : Advanced Video Codec
Format profile : [email protected]
Format settings, CABAC : Yes
Format settings, ReFrames : 4 frames
Codec ID : avc1
Codec ID/Info : Advanced Video Coding
Duration : 14mn 4s
Bit rate mode : Variable
Bit rate : 1 996 Kbps
Maximum bit rate : 5 351 Kbps
Width : 1 280 pixels
Height : 720 pixels
Display aspect ratio : 16/9
Frame rate mode : Constant
Frame rate : 25.000 fps
Resolution : 24 bits
Colorimetry : 4:2:0
Scan type : Progressive
Bits/(Pixel*Frame) : 0.087
Stream size : 201 MiB (93%)
Writing library : Vimeo Encoder
Encoded date : UTC 2010-08-06 10:31:00
Tagged date : UTC 2010-08-06 10:31:02

Audio
Format :
Format/Info : Advanced Audio Codec
Format version : Version 4
Format profile : LC
Format settings, SBR : No
Codec ID : 40
Duration : 14mn 4s
Bit rate mode : Variable
Bit rate : 157 Kbps
Maximum bit rate : 284 Kbps
Channel(s) : 2 channels
Channel positions : L R
Sampling rate : 44.1 KHz
Resolution : 16 bits
Stream size : 15.8 MiB (7%)
Encoded date : UTC 2010-08-06 10:31:02
Tagged date : UTC 2010-08-06 10:31:02
Джерело: Vimeo
Особиста оцінка: 10 - без зайвих вагань рекомендую всім!


Золотий реліз (завантажене не впливає на рейтинг)
 Трекер:    Зареєстрований   

Завантажити / скачати фільм українською



відео для новачків



 Зареєстрований:   2014-08-09 15:17
 Розмір:   217 MB 
 Оцінка фільму:   10/10 (Голосів: 2)
   
Ваш часовий пояс: GMT + 2 Години

Нова тема   Відповісти