Азуманґа Дайо: Дуже Короткий Фільм / Azumanga Daioh: Gekijou Tanpen / Azumanga Daioh: The Very Short Movie [2001] 576p Ukr/Jap | Ukr Sub

Нові коментарі

Нова тема   Відповісти
Автор Повідомлення
Arch Enemy 
VIP


З нами з: 30.08.12
Востаннє: 14.08.17
Повідомлень: 644

2014-08-05 22:35  
Азуманґа Дайо: Дуже Короткий Фільм / Azumanga Daioh: Gekijou Tanpen / Azumanga Daioh: The Very Short Movie



Вікове обмеження: 12+
Жанр: школа, комедія
Прем'єра: 22.12.2001
Країна: Японія

Студія: J.C. Staff
Режисер: Нішікіорі Хіроші
Автор оригіналу: Азума Кійохіко
Сейю: Мацуока Юкі (Касуґа Аюму), Канеда Томоко (Міхама Чіо), Танака Ріе (Мізухара Койомі), Хірамацу Акіко (Танізакі Юкарі), Кувашіма Хоуко (Каґура), Ноґава Сакура (Каорі), Асакава Юу (Сакакі), Хіґучі Чіеко (Такіно Томо), Фукушіма Джюн (Мацуока) та інші.

Сюжет:
Коротка стрічка про вже знайомих персонажів, де Осаці знову сняться чудернацькі сни про хвостики Чіо, що живуть власним життям. І от вони вирішили вистрибнути у вікно, і хтозна, чим все це тепер закінчиться.

© MadGuy

Тривалість: 05:53 хв.

Відео:
якість:
контейнер:
кодек:
частота кадрів: 23.976 кадрів/сек.
розмір кадру: 1024х576 пікс.
бітрейт: ~2700 кбіт/сек.
бітність: 8 біт.

Аудіо # 1:
мова: українська, одноголосе закадрове озвучування.
кодек:
кількість каналів: 5.1
бітрейт: 1509 кбіт/сек.
частота: 48000 Гц

Аудіо # 2:
мова: українська, одноголосе закадрове озвучування.
кодек:
кількість каналів: 2.0
бітрейт: 1509 кбіт/сек.
частота: 48000 Гц

Аудіо # 3:
мова: японська, оригінал
кодек:
кількість каналів: 5.1
бітрейт: 1509 кбіт/сек.
частота: 48000 Гц

Аудіо # 4:
мова: японська, оригінал
кодек:
кількість каналів: 2.0
бітрейт: 1509 кбіт/сек.
частота: 48000 Гц

Субтитри:
мова: українська, повні.
формат: ASS
тип: програмні, м'які, внутрішні

Джерело озвучення: AniUA

озвучування: Kraka
переклад: Arch_Enemy
редакція: MadGuy
робота зі звуком: Arch_Enemy
: Arch_Enemy

Джерело релізу: AniUA
Скріншоти
MI
General
Unique ID : 251051631150337182743510109419762068731 (0xBCDEC9101A7CACB78EEF807A437BACFB)
Complete name : E:\Anime\[AniUA]_Azumanga_Daioh_-_Gekijou_Tanpen_[UKR_JAP]_[x264_1024x576_DTS_DVDRip]_[Kraka].
Format :
Format version : Version 4 / Version 2
File size : 369 MiB
Duration : 5mn 53s
Overall bit rate : 8 765 Kbps
Movie name : Azumanga Daioh: Gekijou Tanpen
Encoded date : UTC 2014-08-05 18:34:57
Writing application : mkvmerge v7.1.0 ('Good Love') 64bit built on Jul 27 2014 13:06:55
Writing library : libebml v1.3.0 + libmatroska v1.4.1
DURATION : 00:04:41.300000000
NUMBER_OF_FRAMES : 61
NUMBER_OF_BYTES : 3219
_STATISTICS_WRITING_APP : mkvmerge v7.1.0 ('Good Love') 64bit built on Jul 27 2014 13:06:55
_STATISTICS_WRITING_DATE_UTC : 2014-08-05 18:34:57
_STATISTICS_TAGS : BPS DURATION NUMBER_OF_FRAMES NUMBER_OF_BYTES

Video
ID : 1
Format : AVC
Format/Info : Advanced Video Codec
Format profile : [email protected]
Format settings, CABAC : Yes
Format settings, ReFrames : 4 frames
Codec ID : V_MPEG4/ISO/AVC
Duration : 5mn 53s
Bit rate : 2 554 Kbps
Nominal bit rate : 3 000 Kbps
Width : 1 024 pixels
Height : 576 pixels
Display aspect ratio : 16:9
Frame rate mode : Constant
Frame rate : 23.976 fps
Color space : YUV
Chroma subsampling : 4:2:0
Bit depth : 8 bits
Scan type : Progressive
Bits/(Pixel*Frame) : 0.181
Stream size : 108 MiB (29%)
Title : by Arch_Enemy, http://aniua.com/
Writing library : core 130 r2274bm c832fe9
Encoding settings : cabac=1 / ref=2 / deblock=1:0:0 / analyse=0x3:0x113 / me=hex / subme=6 / psy=1 / psy_rd=1.00:0.00 / mixed_ref=1 / me_range=16 / chroma_me=1 / trellis=1 / 8x8dct=1 / cqm=0 / deadzone=21,11 / fast_pskip=1 / chroma_qp_offset=-2 / threads=3 / lookahead_threads=1 / sliced_threads=0 / nr=0 / decimate=1 / interlaced=0 / bluray_compat=0 / constrained_intra=0 / bframes=3 / b_pyramid=2 / b_adapt=1 / b_bias=0 / direct=1 / weightb=1 / open_gop=0 / weightp=1 / keyint=250 / keyint_min=23 / scenecut=40 / intra_refresh=0 / rc_lookahead=30 / rc=abr / mbtree=1 / bitrate=3000 / ratetol=1.0 / qcomp=0.60 / qpmin=0 / qpmax=69 / qpstep=4 / ip_ratio=1.40 / aq=1:1.00
Language : Japanese
Default : Yes
Forced : Yes

Audio #1
ID : 2
Format :
Format/Info : Digital Theater Systems
Mode : 16
Format settings, Endianness : Big
Codec ID : A_DTS
Duration : 5mn 53s
Bit rate mode : Constant
Bit rate : 1 509 Kbps
Channel(s) : 6 channels
Channel positions : Front: L C R, Side: L R, LFE
Sampling rate : 48.0 KHz
Bit depth : 24 bits
Compression mode : Lossy
Stream size : 63.5 MiB (17%)
Title : Kraka 5.1
Language : Ukrainian
Default : Yes
Forced : Yes

Audio #2
ID : 3
Format :
Format/Info : Digital Theater Systems
Mode : 16
Format settings, Endianness : Big
Codec ID : A_DTS
Duration : 5mn 53s
Bit rate mode : Constant
Bit rate : 1 509 Kbps
Channel(s) : 2 channels
Channel positions : Front: L R
Sampling rate : 48.0 KHz
Bit depth : 24 bits
Compression mode : Lossy
Stream size : 63.5 MiB (17%)
Title : Kraka 2.0
Language : Ukrainian
Default : No
Forced : No

Audio #3
ID : 4
Format :
Format/Info : Digital Theater Systems
Mode : 16
Format settings, Endianness : Big
Codec ID : A_DTS
Duration : 5mn 53s
Bit rate mode : Constant
Bit rate : 1 509 Kbps
Channel(s) : 6 channels
Channel positions : Front: L C R, Side: L R, LFE
Sampling rate : 48.0 KHz
Bit depth : 24 bits
Compression mode : Lossy
Stream size : 63.5 MiB (17%)
Title : Original 5.1
Language : Japanese
Default : No
Forced : No

Audio #4
ID : 5
Format :
Format/Info : Digital Theater Systems
Mode : 16
Format settings, Endianness : Big
Codec ID : A_DTS
Duration : 5mn 53s
Bit rate mode : Constant
Bit rate : 1 509 Kbps
Channel(s) : 2 channels
Channel positions : Front: L R
Sampling rate : 48.0 KHz
Bit depth : 24 bits
Compression mode : Lossy
Stream size : 63.5 MiB (17%)
Title : Original 2.0
Language : Japanese
Default : No
Forced : No

Text
ID : 6
Format : ASS
Codec ID : S_TEXT/ASS
Codec ID/Info : Advanced Sub Station Alpha
Compression mode : Lossless
Title : Arch_Enemy and MadGuy
Language : Ukrainian
Default : No
Forced : No


Золотий реліз (завантажене не впливає на рейтинг)
 Трекер:    Зареєстрований   

Завантажити / скачати аніме українською



відео для новачків



 Зареєстрований:   2014-08-05 22:35
 Розмір:   369 MB 
 Оцінка аніме:   7.8/10 (Голосів: 4)
   
Arch Enemy 
VIP


З нами з: 30.08.12
Востаннє: 14.08.17
Повідомлень: 644

2014-08-05 22:59  
Отаке чудо зліпив)))

Серіал теж будемо перекладати та озвучувати.

IvXynta 
Попереджень: 1
Попереджень: 1 


З нами з: 09.05.16
Востаннє: 18.08.17
Повідомлень: 232

2016-09-08 02:28  
[b]Arch Enemy[/b]
Звісно це чуло. Мультфільм, де показують Японця з очима корови, не є комедія.
---------------------------------------
Соборна Україна більш ніколи не стане на захист православної віри Монгольського царя, тому що завжди була католична.

Ваш часовий пояс: GMT + 2 Години

Нова тема   Відповісти