Котячі примхи! / Nyan Koi! (01-12 із 12) (2009) 720p Jap | Ukr Sub

Нові коментарі

Нова тема   Відповісти
Останній раз роздавалося astra (2017-08-23)
Автор Повідомлення
MadGuy 
Свій


З нами з: 05.08.11
Востаннє: 23.08.17
Повідомлень: 87

2014-07-30 20:34  
Котячі примхи! / Nyan Koi! (01-12 із 12) (2009) 720p Jap | Ukr Sub

Котячі примхи! / Nyan Koi! (01-12 із 12) (2009) 720p Jap | Ukr Sub


Жанр: комедія, романтика, школа
Країна: Японія



Кінокомпанія: AIC
Режисер: Каваґуті Кеїчіро
Актори: Асанума Шінтаро, Іґучі Юка, Шіраїші Рьоко, Ватанабе Шінічі

Сюжет:
17-річному Косаці Джюнпею непощастило народитися з алергією на котів – і це в сім'ї, де всі їх просто обожнюють, та ще й тримають здоровезну і нахабну кицьку Нямсас. І треба ж такому статися, що кохання дитинства і всього життя Каеде Мізуно – неабияка котолюбка! Недивно, що одного разу Джюнпей, гуляючи в глибокій фрустрації, не розрахував сили і зітнув голову статуї місцевого котячого божества. Покарання не змусило себе чекати – хлопець був проклятий. Суть прокляття наочно пояснили всюдисуща Нямсас із товаришем – храмовим котом Тамою (до речі, герой почав розуміти котячу мову). Тепер Джюнпей зобов'язаний за короткий термін здійснити 100 добрих справ заради блага котячого племені – інакше сам назавжди стане таким же.

Занурившись у добрі справи, головний герой поступово дізнається просту істину: коти – найкращі друзі дівчат. Серед тих і інших на його шляху зустрічаються як чарівні і пухнасті, так і вельми жорсткі і рішучі. Ех, схоже, не судилося Джюнпею стати котом, який гуляє сам по собі!


Тривалість: 12 серій по 24 хв.
Перелік серій
01. Статуя кішки і проклятий школяр
02. Хлопець на побігеньках
03. Як тебе звати?
04. Чудова людина
05. Короткі миті
06. Молочний та гіркий шоколад, цукор і перець
07. Дочекайся мене до сутінків
08. Сліпучий особистий тренер
09. Дівчата у воді
10. Одного разу серед ночі
11. Друзі
12. Чи жде мене небо?
Якість:
Відео:
кодек:
розмір кадру: 1280 х 720
бітрейт: 2700 кб/с

Аудіо # 1:
мова: японська, оригінал
кодек: Vorbis
бітрейт: 256 кб/с
частота: 48000 Гц

Субтитри:
мова: українська
тип: програмні (м'які)
формат: *.ass

Робота над субтитрами: MadGuy
Окрема подяка панові DEMO за виправлення!
Info
General
Unique ID : 216240482263557182100351022444508178995 (0xA2AE66E9577B58A7836B1F6D7EE96A33)
Complete name : G:\AniUA_Own\[AniUA]_Nyan_Koi_[]_[720p]\[AniUA]_Nyan_Koi!_01_[BDrip_1280x720_x264_Vorbis]_Ukr_Subs.
Format :
Format version : Version 4 / Version 2
File size : 550 MiB
Duration : 24mn 12s
Overall bit rate mode : Variable
Overall bit rate : 3 176 Kbps
Encoded date : UTC 2014-07-30 16:04:02
Writing application : mkvmerge v7.0.0 ('Where We Going') 64bit built on Jun 9 2014 15:16:27
Writing library : libebml v1.3.0 + libmatroska v1.4.1
DURATION : 00:24:04.070000000
NUMBER_OF_FRAMES : 452
NUMBER_OF_BYTES : 30993
_STATISTICS_WRITING_APP : mkvmerge v7.0.0 ('Where We Going') 64bit built on Jun 9 2014 15:16:27
_STATISTICS_WRITING_DATE_UTC : 2014-07-30 16:04:02
_STATISTICS_TAGS : BPS DURATION NUMBER_OF_FRAMES NUMBER_OF_BYTES
Attachment : Yes / Yes / Yes / Yes / Yes / Yes / Yes

Video
ID : 1
Format : AVC
Format/Info : Advanced Video Codec
Format profile : High [email protected]
Format settings, CABAC : Yes
Format settings, ReFrames : 9 frames
Codec ID : V_MPEG4/ISO/AVC
Duration : 24mn 12s
Bit rate : 2 857 Kbps
Width : 1 280 pixels
Height : 720 pixels
Display aspect ratio : 16:9
Frame rate mode : Constant
Frame rate : 23.976 fps
Color space : YUV
Chroma subsampling : 4:2:0
Bit depth : 10 bits
Scan type : Progressive
Bits/(Pixel*Frame) : 0.129
Stream size : 495 MiB (90%)
Writing library : core 132 r2309 3b1f1f7
Encoding settings : cabac=1 / ref=9 / deblock=1:-2:-2 / analyse=0x3:0x133 / me=umh / subme=9 / psy=1 / psy_rd=0.90:0.00 / mixed_ref=1 / me_range=24 / chroma_me=1 / trellis=2 / 8x8dct=1 / cqm=0 / deadzone=21,11 / fast_pskip=1 / chroma_qp_offset=-2 / threads=6 / lookahead_threads=1 / sliced_threads=0 / nr=0 / decimate=0 / interlaced=0 / bluray_compat=0 / constrained_intra=0 / bframes=8 / b_pyramid=2 / b_adapt=2 / b_bias=0 / direct=1 / weightb=1 / open_gop=0 / weightp=2 / keyint=250 / keyint_min=23 / scenecut=40 / intra_refresh=0 / rc=crf / mbtree=0 / crf=15.7 / qcomp=0.70 / qpmin=9 / qpmax=42 / qpstep=4 / ip_ratio=1.40 / pb_ratio=1.30 / aq=1:0.90 / zones=1872,4027,b=1.4
Default : No
Forced : No
DURATION : 00:24:12.618000000
NUMBER_OF_FRAMES : 34828
NUMBER_OF_BYTES : 526138220
_STATISTICS_WRITING_APP : mkvmerge v7.0.0 ('Where We Going') 64bit built on Jun 9 2014 15:16:27
_STATISTICS_WRITING_DATE_UTC : 2014-07-30 16:04:02
_STATISTICS_TAGS : BPS DURATION NUMBER_OF_FRAMES NUMBER_OF_BYTES

Audio
ID : 2
Format : Vorbis
Format settings, Floor : 1
Codec ID : A_VORBIS
Duration : 24mn 12s
Bit rate mode : Variable
Bit rate : 256 Kbps
Channel(s) : 2 channels
Sampling rate : 48.0 KHz
Compression mode : Lossy
Stream size : 44.3 MiB (8%)
Writing library : libVorbis (Omnipresent) (20120203 (Omnipresent))
Language : Japanese
Default : Yes
Forced : No

Text
ID : 3
Format : ASS
Codec ID : S_TEXT/ASS
Codec ID/Info : Advanced Sub Station Alpha
Compression mode : Lossless
Title : Ukrainian Subs by MadGuy
Language : Ukrainian
Default : Yes
Forced : Yes
Скріншоти





Особиста оцінка: 10 - без зайвих вагань рекомендую всім!

Увага! Якщо бажаєте взяти дані субтитри для озвучування, спершу спитайте дозволу автора!


Реліз Завершено - Додано 11-12 Серії!


Золотий реліз (завантажене не впливає на рейтинг)
 Трекер:    Зареєстрований   

Завантажити / скачати аніме українською



відео для новачків



 Зареєстрований:   2014-10-04 18:28
 Розмір:   6.77 GB 
 Оцінка аніме:   10/10 (Голосів: 9)
   
NeetScrool 
Відео Гуртом - фільмокрай
Відео Гуртом - фільмокрай


З нами з: 10.01.13
Востаннє: 24.08.17
Повідомлень: 2613

2014-07-30 20:51  
Банальний і заїжджений гаремчик, але сам "котячий гумор" хороший.
MadGuy 
Свій


З нами з: 05.08.11
Востаннє: 23.08.17
Повідомлень: 87

2014-08-02 10:50  
Реліз Оновлено - Додано 2 Серію

MadGuy 
Свій


З нами з: 05.08.11
Востаннє: 23.08.17
Повідомлень: 87

2014-08-05 20:00  
Реліз Оновлено - Додано 3 Серію

MadGuy 
Свій


З нами з: 05.08.11
Востаннє: 23.08.17
Повідомлень: 87

2014-08-10 17:52  
Реліз Оновлено - Додано 4 Серію

MadGuy 
Свій


З нами з: 05.08.11
Востаннє: 23.08.17
Повідомлень: 87

2014-08-13 15:25  
Реліз Оновлено - Додано 5-6 Серії

MadGuy 
Свій


З нами з: 05.08.11
Востаннє: 23.08.17
Повідомлень: 87

2014-08-24 10:13  
Реліз Оновлено - Додано 7 Серію!

MadGuy 
Свій


З нами з: 05.08.11
Востаннє: 23.08.17
Повідомлень: 87

2014-08-28 10:52  
Реліз Оновлено - Додано 08-10 Серії!

Konfucius 
Управління
Управління


З нами з: 30.09.07
Востаннє: 23.08.17
Повідомлень: 4944

2014-08-30 11:11  
Бракує акторів і хоча б одного скріншота з субтитрами.
MadGuy 
Свій


З нами з: 05.08.11
Востаннє: 23.08.17
Повідомлень: 87

2014-08-30 11:43  
Konfucius
Виправив.

Додано через 24 секунди:

Реліз Завершено - Додано 10-12 Серії!

MadGuy 
Свій


З нами з: 05.08.11
Востаннє: 23.08.17
Повідомлень: 87

2014-10-04 18:29  
Реліз Оновлено - Невеличкий фікс восьмої серії.
Ваш часовий пояс: GMT + 2 Години

Нова тема   Відповісти