З днем народження, Тіммі / Happy Birthday Timmy (2010) 720p Eng | sub Ukr

Нові коментарі

Нова тема   Відповісти
Автор Повідомлення
wolesj 
VIP


З нами з: 15.07.12
Востаннє: 28.01.20
Повідомлень: 757

2014-07-27 12:15  
З днем народження, Тіммі / Happy Birthday Timmy (2010) 720p Eng | sub Ukr

З днем народження, Тіммі / Happy Birthday Timmy (2010) 720p Eng | sub Ukr


Жанр: комедія
Країна: Ірландія



Кінокомпанія: IADT, National Film School
Режисер: ДЖОННІ КАЛЛЕН
Актори: Ліам МакЕвой/ Liam McEvoy, Пол Нолан / Paul Nolan, Гізер Намберґ / Heather Numberg, Кара Ферон / Cara Fearon

Сюжет:
що варто або не варто дарувати синові на день народження.


Тривалість: 00:02:44
Якість: 720p
Відео:
кодек:
розмір кадру: 1280x720
бітрейт: 2 175 кб/с

Аудіо:
мова: англійська (титри)
кодек: 2.0
бітрейт: 157 кб/с

Субтитри:
мова: українська (на титри)
тип: програмні (м'які)
формат: *.srt
Скріншоти





Нагороди:
приз за кращу ірландську короткометражку Foyle Film Festival 2010
спеціальний приз Porsche Awards 2010
спеціальний приз Chicago Irish Film Festival 2011
2 нагороди Toronto Student Film Festival 2011 (краща короткометражка, приз глядацьких симпатій)
нагорода кращому режисеру-дебютанту Fastnet Short Film Festival 2011
Звіт Info

General
Complete name: Happy birthday Timmy (2010)\Happy birthday Timmy (2010).mp4
Format: MPEG-4
Format profile: Base Media / Version 2
Codec ID: mp42
File size: 45.7 MiB
Duration: 2mn 44s
Overall bit rate: 2 334 Kbps
Encoded date: UTC 2012-12-14 02:04:34
Tagged date: UTC 2012-12-14 02:04:34

Video
Format: AVC
Format/Info: Advanced Video Codec
Format profile: [email protected]
Format settings, CABAC: Yes
Format settings, ReFrames: 4 frames
Codec ID: avc1
Codec ID/Info: Advanced Video Coding
Duration: 2mn 44s
Bit rate mode: Variable
Bit rate: 2 175 Kbps
Width: 1 280 pixels
Height: 720 pixels
Display aspect ratio: 16/9
Frame rate mode: Variable
Frame rate: 25.000 fps
Resolution: 24 bits
Colorimetry: 4:2:0
Scan type: Progressive
Bits/(Pixel*Frame): 0.094
Stream size: 42.5 MiB (93%)
Writing library: core 128 r2216 198a7ea
Encoding settings: cabac=1 / ref=3 / deblock=1:0:0 / analyse=0x3:0x113 / me=hex / subme=7 / psy=1 / psy_rd=1.00:0.00 / mixed_ref=1 / me_range=16 / chroma_me=1 / trellis=1 / 8x8dct=1 / cqm=0 / deadzone=21,11 / fast_pskip=1 / chroma_qp_offset=-2 / threads=12 / lookahead_threads=2 / sliced_threads=0 / nr=0 / decimate=1 / interlaced=0 / bluray_compat=0 / constrained_intra=0 / bframes=3 / b_pyramid=2 / b_adapt=1 / b_bias=0 / direct=1 / weightb=1 / open_gop=0 / weightp=2 / keyint=75 / keyint_min=25 / scenecut=40 / intra_refresh=0 / rc_lookahead=40 / rc=2pass / mbtree=1 / bitrate=2175 / ratetol=1.0 / qcomp=0.60 / qpmin=5 / qpmax=69 / qpstep=4 / cplxblur=20.0 / qblur=0.5 / vbv_maxrate=3750 / vbv_bufsize=12500 / nal_hrd=none / ip_ratio=1.40 / aq=1:1.00
Encoded date: UTC 2012-12-14 02:04:34
Tagged date: UTC 2012-12-14 02:04:34

Audio
Format:
Format/Info: Advanced Audio Codec
Format version: Version 4
Format profile: LC
Format settings, SBR: No
Codec ID: 40
Duration: 2mn 44s
Bit rate mode: Variable
Bit rate: 157 Kbps
Channel(s): 2 channels
Channel positions: L R
Sampling rate: 48.0 KHz
Resolution: 16 bits
Stream size: 3.08 MiB (7%)
Encoded date: UTC 2012-12-14 02:04:34
Tagged date: UTC 2012-12-14 02:04:34
Джерело: Vimeo
Особиста оцінка: 10 - без зайвих вагань рекомендую всім! (але спочатку краще подивитись батькам)


Золотий реліз (завантажене не впливає на рейтинг)
 Трекер:    Зареєстрований   

Завантажити / скачати фільм українською



відео для новачків



 Зареєстрований:   2014-07-27 12:15
 Розмір:   46 MB 
 Оцінка фільму:   10/10 (Голосів: 3)
   
Ваш часовий пояс: GMT + 2 Години

Нова тема   Відповісти