Бетмен: Під червоною маскою / Batman: Under The Red Hood (2010) 720p Ukr/Eng | sub Ukr/Eng

Нові коментарі

Нова тема   Відповісти
Автор Повідомлення
Цікава ідея 
Поважний учасник


З нами з: 26.12.11
Востаннє: 15.05.17
Повідомлень: 185

2014-07-24 23:32  
Бетмен: Під червоною маскою / Batman: Under The Red Hood (2010) 720p Ukr/Eng | sub Ukr/Eng



Жанр: анімація, фантастика
Країна: США



Кінокомпанія: DC Entertainment, Warner Bros. Animation
Режисер: Брендон Віетті
Актори: Брюс Грінвуд, Дженсен Еклс, Джон Ді Маджіо, Ніл Патрік, Харріс Джейсон, Айзекс Уейд, Уїльямс Карлос Алазракі, Роберт Клотуорті, Гері Коул, Брайан Джордж

Сюжет:
У Готемі з'являється новий борець зі злочинністю. Він називає себе Червоною Маскою. На відміну від Бетмена, він не дотримується кодексу честі і немилосердно вбиває порушників закону. Якраз тому він стає ворогом для Бетмена. Винятковим і надзвичайним, але все ж ворогом. Настав час розгадати його таємниці...


Українською мовою озвучено студією Цікава ідея на замовлення HURTOM.COM


Тривалість: 01:15:50
Якість:
Відео:
кодек:
розмір кадру: 1280x720
бітрейт: 1943 кб/с
CRF: 17

Аудіо # 1:
мова: українська | Цікава ідея
переклад: багатоголосий закадровий
кодек: 5.1
бітрейт: 448 кб/с

Аудіо # 2:
мова: англійська
переклад: оригінал
кодек: 5.1
бітрейт: 448 кб/с

Субтитри # 1:
мова: українська | Mirqn
тип: програмні (м'які)
формат: *.srt

Субтитри # 2:
мова: англійська
тип: програмні (м'які)
формат: *.srt

Скріншоти




Звіт Info
General
Unique ID : 244395432975268681523778408498352271538 (0xB7DCD927D1ED2AB99DB57A82075AB0B2)
Complete name : Batman Under The Red Hood (2010) [ukr,eng] 720p [Hurtom].
Format :
Format version : Version 4 / Version 2
File size : 1.53 GiB
Duration : 1h 15mn
Overall bit rate : 2 897 Kbps
Movie name : Бетмен: Під червоною маскою / Batman: Under The Red Hood (2010) [Hurtom]
Encoded date : UTC 2014-07-30 12:52:46
Writing application : mkvmerge v7.0.0 ('Where We Going') 32bit built on Jun 9 2014 15:08:34
Writing library : libebml v1.3.0 + libmatroska v1.4.1
DURATION : 01:11:51.266000000
NUMBER_OF_FRAMES : 691
NUMBER_OF_BYTES : 25157
_STATISTICS_WRITING_APP : mkvmerge v7.0.0 ('Where We Going') 32bit built on Jun 9 2014 15:08:34
_STATISTICS_WRITING_DATE_UTC : 2014-07-30 12:52:46
_STATISTICS_TAGS : BPS DURATION NUMBER_OF_FRAMES NUMBER_OF_BYTES
Attachment : Yes

Video
ID : 1
Format : AVC
Format/Info : Advanced Video Codec
Format profile : [email protected]
Format settings, CABAC : Yes
Format settings, ReFrames : 8 frames
Codec ID : V_MPEG4/ISO/AVC
Duration : 1h 15mn
Bit rate : 1 943 Kbps
Width : 1 280 pixels
Height : 720 pixels
Display aspect ratio : 16:9
Frame rate mode : Constant
Frame rate : 23.976 fps
Color space : YUV
Chroma subsampling : 4:2:0
Bit depth : 8 bits
Scan type : Progressive
Bits/(Pixel*Frame) : 0.088
Stream size : 1.03 GiB (67%)
Writing library : core 142 r2431 ac76440
Encoding settings : cabac=1 / ref=8 / deblock=1:-1:-1 / analyse=0x3:0x133 / me=umh / subme=10 / psy=1 / psy_rd=1.00:0.15 / mixed_ref=1 / me_range=32 / chroma_me=1 / trellis=2 / 8x8dct=1 / cqm=0 / deadzone=21,11 / fast_pskip=0 / chroma_qp_offset=-3 / threads=12 / lookahead_threads=1 / sliced_threads=0 / nr=0 / decimate=1 / interlaced=0 / bluray_compat=0 / constrained_intra=0 / bframes=3 / b_pyramid=2 / b_adapt=2 / b_bias=0 / direct=3 / weightb=1 / open_gop=0 / weightp=2 / keyint=240 / keyint_min=23 / scenecut=40 / intra_refresh=0 / rc_lookahead=60 / rc=crf / mbtree=1 / crf=17.0 / qcomp=0.60 / qpmin=0 / qpmax=69 / qpstep=4 / vbv_maxrate=31250 / vbv_bufsize=31250 / crf_max=0.0 / nal_hrd=none / filler=0 / ip_ratio=1.40 / aq=1:1.00
Default : Yes
Forced : No
DURATION : 01:15:50.546000000
NUMBER_OF_FRAMES : 109104
NUMBER_OF_BYTES : 1137026296
_STATISTICS_WRITING_APP : mkvmerge v7.0.0 ('Where We Going') 32bit built on Jun 9 2014 15:08:34
_STATISTICS_WRITING_DATE_UTC : 2014-07-30 12:52:46
_STATISTICS_TAGS : BPS DURATION NUMBER_OF_FRAMES NUMBER_OF_BYTES

Audio #1
ID : 2
Format : AC-3
Format/Info : Audio Coding 3
Mode extension : CM (complete main)
Format settings, Endianness : Big
Codec ID : A_AC3
Duration : 1h 15mn
Bit rate mode : Constant
Bit rate : 448 Kbps
Channel(s) : 6 channels
Channel positions : Front: L C R, Side: L R, LFE
Sampling rate : 48.0 KHz
Bit depth : 16 bits
Compression mode : Lossy
Stream size : 243 MiB (15%)
Title : Озвучено на замовлення hurtom.com
Language : Ukrainian
Default : Yes
Forced : No

Audio #2
ID : 3
Format : AC-3
Format/Info : Audio Coding 3
Mode extension : CM (complete main)
Format settings, Endianness : Big
Codec ID : A_AC3
Duration : 1h 15mn
Bit rate mode : Constant
Bit rate : 448 Kbps
Channel(s) : 6 channels
Channel positions : Front: L C R, Side: L R, LFE
Sampling rate : 48.0 KHz
Bit depth : 16 bits
Compression mode : Lossy
Stream size : 243 MiB (15%)
Title : Original
Language : English
Default : No
Forced : No

Text #1
ID : 4
Format : UTF-8
Codec ID : S_TEXT/UTF8
Codec ID/Info : UTF-8 Plain Text
Title : Українською переклав Мирон для сайту гуртом.ком
Language : Ukrainian
Default : No
Forced : No

Text #2
ID : 5
Format : UTF-8
Codec ID : S_TEXT/UTF8
Codec ID/Info : UTF-8 Plain Text
Title : Original
Language : English
Default : No
Forced : No
log
[info]: frame I:1467 Avg QP:11.58 size:102209
[info]: frame P:34563 Avg QP:16.21 size: 18194
[info]: frame B:73074 Avg QP:18.53 size: 4903
[info]: consecutive B-frames: 5.0% 6.9% 30.3% 57.8%
[info]: mb I I16..4: 18.4% 52.2% 29.4%
[info]: mb P I16..4: 1.5% 5.7% 2.3% P16..4: 30.9% 10.1% 10.1% 0.6% 0.3% skip:38.5%
[info]: mb B I16..4: 0.1% 0.4% 0.2% B16..8: 27.3% 4.9% 1.3% direct: 1.4% skip:64.4% L0:49.2% L1:46.9% BI: 3.9%
[info]: 8x8 transform intra:57.7% inter:43.3%
[info]: direct mvs spatial:99.8% temporal:0.2%
[info]: coded y,uvDC,uvAC intra: 57.6% 57.8% 43.8% inter: 6.3% 6.5% 2.5%
[info]: i16 v,h,dc,p: 53% 19% 10% 18%
[info]: i8 v,h,dc,ddl,ddr,vr,hd,vl,hu: 16% 13% 27% 6% 7% 6% 8% 7% 10%
[info]: i4 v,h,dc,ddl,ddr,vr,hd,vl,hu: 17% 14% 14% 9% 10% 8% 9% 8% 10%
[info]: i8c dc,h,v,p: 51% 25% 16% 9%
[info]: Weighted P-Frames: Y:1.6% UV:1.4%
[info]: ref P L0: 50.0% 3.3% 18.3% 8.8% 5.9% 5.6% 4.2% 3.0% 0.9% 0.0%
[info]: ref B L0: 65.7% 14.3% 9.1% 4.2% 3.3% 2.2% 1.2%
[info]: ref B L1: 89.9% 10.1%
[info]: kb/s:1998.93
Про озвучення

Українське озвучення створено в рамках проекту "Хочеш кіно українською? Замовляй!"



Дякуємо користувачам, що фінансово допомогли проекту:
[Captain], 4оrnyi, andnic, Anisimov Ivan, ArPoHoM, Aussie, awesome555, beller mia, BMK12, bovchyk, Bushido, Corwind, DaVoSe, deepfree, detonator1980, Dim-ON, dimon287, dimon387, dmaxim93, dmaxim93, don pedro, Dr.Cruncher, dunay, Duran, DеLight, edu07, elwolf, F_r_e_n_k, Fizia, forest17, forman1848, gaidamack, genauk, genauk, Golota, guriu, Gxost, Hello_ZB, igg, igor911, ilitbr, Immort, iva730, ivan vyrvyvuho, jabka, kahler, Kibonster, Kjam, Klen-Yavir, knedlyk, kpripper, kucher, kum33, Kush82, lejlafatiha, LeSSeR09, LudCok, lyolikaa, makstur, mamaMaria, Masanchick, MasterYura, maxun, mehlis1980, mich, morg, msi-145, NemoInFire, nemos, Nolex, okay, oleg.filyuk, OlehSH, Oleksandra, Oleshko, Olkos, ortt11 та Вишгород, OviniX, padla, pai1ripe, panama58, patlatyj1000, patriot2305, pesko, Pivoman, pony, ppau, Pylorama, Qualcuno, Rentoksana, romdoc, Roni, ros21, RST, rybanok27, sash_ok, sergey.sobol, serzholino, shakhtar3000, shtein, skuline, Snuryus, somnambula, Sovist, strategbob, super_sonic, Symargl12, TarasD, tbutko, Thaddeus, Timir, Tyler, V.P.Staryk, veto, VicOd, vifilo, Vikk, vilnuy, Virakocha (Тарас Юрах), Visent, Vovchyck, wantedeffect, whiteinwolf, Wivern, Woldemarchyk, Woldemarchyk, WorldMaster, xaoc1024, xBohdan, xfsthe, yarik_ratnik, zaika, дяк, Конечний Ростислав, Леді22, Надія, Надія, павло, чомусь, aromatherapy, Infoserfer, ludens, vecchio, urshula, nimrodel, slvnd, maxun

Детальніше про проект.


Джерело:
Подяка за постер: bober-mober

Фільми, які було озвучено на замовлення Гуртом (допоможіть озвучити наступні):
М: Місто шукає вбивцю (1931)
Чарівник країни Оз (1939)
Великий диктатор (1940)
Громадянин Кейн (1941)
Подвійна страховка (1944)
Це дивовижне життя (1946)
Викрадачі велосипедів (1948)
Рашьомон (1950)
Сім самураїв (1954)
У випадку вбивства телефонуйте "М" (1954)
Дияволиці (1955)
Леді та Блудько (1955)
12 розгніваних чоловіків (1957)
Кривавий трон (1957)
Сьома печатка (1957)
На північ через північний захід (1959)
Більярдист (1961)
Охоронець (1961)
Вбити пересмішника (1962)
Людина, що вбила Ліберті Веленса (1962)
Вісім з половиною (1963)
Велика прогулянка (1966)
Як Ґрінч украв Різдво! (1966)
Випускник (1967)
Самурай (1967)
Одного разу на Дикому Заході (1968)
Коти-аристократи (1970)
Механічний апельсин (1971)
Навколо світу за 80 днів (1972)
Паперовий місяць (1973)
Китайський квартал (1974)
Пролітаючи над гніздом зозулі (1975)
Телемережа (1976)
Енні Голл (1977)
Мисливець на оленів (1978)
Буття Брайана за Монті Пайтоном (1979)
Коли я буду там (1979)
Мангеттен (1979)
Людина-слон (1980)
Приборкання норовливого (1980)
Скажений бик (1980)
Підводний човен (1981)
Ґанді (1982)
Король комедії (1982)
Різдвяна історія (1983)
Амадей (1984)
Просто кров (1984)
Барва пурпурова (1985)
Бразилія (1985)
Ран (1985)
Великий мишачий детектив (1986)
Небесний замок Лапута (1986)
Часи радіо (1987)
Акіра (1988)
Мій сусід Тоторо (1988)
Останній з могікан (1992)
Скажені пси (1992)
Шосе в нікуди (1997)
Американська історія Ікс (1998)
Страх і огида в Лас-Вегасі (1998)
Шоу Трумена (1998)
Догма (1999)
Магнолія (1999)
Сука любов (2000)
Нічия земля (2001)
Родина Тененбаумів (2001)
Тріо з Бельвіля (2003)
Труднощі перекладу (2003)
Бункер (2004)
Готель Руанда (2004)
Тренер Картер (2005)
Льодовиковий період 2 (2006)
Лабіринт Фавна (2006)
Людина з планети Земля (2007)
В тіні місяця (2007)
Голод (2008)
Іп Мен (2008)
Викрадена (2008)
Впусти мене (2008)
Хвиля (2008)
Містер Ніхто (2009)
13 вбивць (2010)
Бетмен: Під червоною маскою (2010)
Іп Мен 2 (2010)
Котяче життя (2010)
Позичайка Аріетті (2010)
Чорний Лебідь (2010)
Місто (2010)
Сенна (2010)
50/50 (2011)
Адвокат на лінкольні (2011)
Дерево життя (2011)
Опівночі в Парижі (2011)
Воїн (2011)
Драйв (2011)
Життя за один день (2011)
Укриття (2011)
Хижа в лісі (2011)
Рейд: Спокута (2011)
Акт вбивства (2012)
Арго (2012)
Безпека не гарантується (2012)
Викрадена 2 (2012)
Збірка промінців надії (2012)
Ернест і Селестіна (2012)
Звірі дикого Півдня (2012)
Лінкольн (2012)
Любов (2012)
Надійні хлопці (2012)
Паркер (2012)
Переваги скромників (2012)
Пліч-о-пліч (2012)
Полювання (2012)
Розірване коло (2012)
Суддя Дредд (2012)
Тридцять хвилин по півночі (2012)
Що б ви зробили (2012)
Американська афера (2013)
Виклик (2013)
Вона (2013)
Ворог (2013)
Всередині Л'ювіна Девіса (2013)
Джо (2013)
Зловісні мерці (2013)
Іда (2013)
Лок (2013)
Небраска (2013)
Неймовірна подорож містера Співета (2013)
Побічна дія (2013)
Перед північчю (2013)
Снігобур (2013)
Стокер (2013)
TPB: за межами клавіатури (2013)
Гниле місто (2013)
Бердмен (2014)
Вероніка Марс (2014)
Вроджена вада (2014)
Дика (2014)
Інтерв'ю (2014)
Святий Вінсент (2014)
Пісня моря (2014)
Призначення (2014)
Чим ми займаємося в тінях (2014)
Шеф-кухар (2014)
Безрідні звірі (2015)
Бруклін (2015)
Земля картелів (2015) нове
Кімната (2015)
Я, Ерл та помираюча дівчина (2015)
Манчестер біля моря (2016) нове
Нічні звірі (2016) нове


Торрент оновлено 30.07.2014 через артефакти відео.


Авторський реліз (завантажувати можна без реєстрації)
 Трекер:    Зареєстрований   

Завантажити / скачати мультфільм українською



відео для новачків



 Зареєстрований:   2014-07-30 16:03
 Розмір:   1.53 GB 
 Оцінка мультфільму:   9.8/10 (Голосів: 22)
   
Hentaihunter 
VIP


З нами з: 16.08.08
Востаннє: 18.08.17
Повідомлень: 2362

2014-07-25 21:38  
Відправте вашого кодувальника на курси підвищення кваліфікації.
NeetScrool 
Відео Гуртом - фільмокрай
Відео Гуртом - фільмокрай


З нами з: 10.01.13
Востаннє: 18.08.17
Повідомлень: 2613

2014-07-25 23:31  
Hentaihunter
Схоже, що сирець був недовантажений або ж у когось сиплеться HDD.

Додано через 3 хвилини 17 секунд:

Підтверджую, знайшов такий же артефакт як на першому скріні. 59 хв

Mr Yuran 
Відео Гуртом - команда HD
Відео Гуртом - команда HD


З нами з: 15.11.11
Востаннє: 18.08.17
Повідомлень: 408

2014-07-26 00:06  
В темі Бетмен: Під червоною маскою / Batman: Under The Red Hood (2010) Remux Ukr/Eng | sub Ukr/Eng написано наступне:
Цитата:
Звіт Info:
...
Format : VC-1
...

Можу припускати що проблема в кодеку оригінального відео. А точніше в декодері. Особисто спостерігав подібні артефакти, коли декодую VC-1 через libacodec. Подібне почав спостерігати після якогось оновлення K-Lite Codec Pack не пізніше ніж півроку тому.

Хоча, можливо проблема в ffdshow. При роботі з VC-1 кодеком ffdshow включаю лише коли потрібно його OSD.

devid_blaine 
Частий відвідувач


З нами з: 02.07.09
Востаннє: 10.08.17
Повідомлень: 38

2014-07-27 20:15  
Чудовий переклад чудового мульту
Konfucius 
Управління
Управління


З нами з: 30.09.07
Востаннє: 18.08.17
Повідомлень: 4939

2014-07-28 20:41  
Hentaihunter
Цікаво те, що я робив два ріпи: перший на CRF19 і через декілька годин другий на CRF18. Зараз я переглянув CRF19, який не потрапив у реліз, і в ньому немає цих артефактів, подібно як і в 480p.

Між двома ріпами я не змінював налаштувань декодера.
Скрипт Avisynth і налаштування однакові, крім CRF.
Перехешував торрент ремуксу у зупиненому стані - абсолютно цілий.
Логи не показують відмінності.
Info CRF19
General
Complete name : batman 720.
Format :
Format version : Version 2
File size : 801 MiB
Duration : 1h 15mn
Overall bit rate : 1 476 Kbps
Writing application : r2431 ac76440
Writing library : Haali Writer b0

Video
ID : 1
Format : AVC
Format/Info : Advanced Video Codec
Format profile : [email protected]
Format settings, CABAC : Yes
Format settings, ReFrames : 8 frames
Codec ID : V_MPEG4/ISO/AVC
Duration : 1h 15mn
Bit rate : 1 446 Kbps
Width : 1 280 pixels
Height : 720 pixels
Display aspect ratio : 16:9
Frame rate mode : Constant
Frame rate : 23.976 fps
Color space : YUV
Chroma subsampling : 4:2:0
Bit depth : 8 bits
Scan type : Progressive
Bits/(Pixel*Frame) : 0.065
Stream size : 785 MiB (98%)
Writing library : core 142 r2431 ac76440
Encoding settings : cabac=1 / ref=8 / deblock=1:-1:-1 / analyse=0x3:0x133 / me=umh / subme=10 / psy=1 / psy_rd=1.00:0.15 / mixed_ref=1 / me_range=32 / chroma_me=1 / trellis=2 / 8x8dct=1 / cqm=0 / deadzone=21,11 / fast_pskip=0 / chroma_qp_offset=-3 / threads=12 / lookahead_threads=1 / sliced_threads=0 / nr=0 / decimate=1 / interlaced=0 / bluray_compat=0 / constrained_intra=0 / bframes=3 / b_pyramid=2 / b_adapt=2 / b_bias=0 / direct=3 / weightb=1 / open_gop=0 / weightp=2 / keyint=240 / keyint_min=23 / scenecut=40 / intra_refresh=0 / rc_lookahead=60 / rc=crf / mbtree=1 / crf=19.0 / qcomp=0.60 / qpmin=0 / qpmax=69 / qpstep=4 / vbv_maxrate=31250 / vbv_bufsize=31250 / crf_max=0.0 / nal_hrd=none / filler=0 / ip_ratio=1.40 / aq=1:1.00
Language : English
Default : Yes
Forced : No
Info CRF18
General
Complete name : batman 720 2.
Format :
Format version : Version 2
File size : 931 MiB
Duration : 1h 15mn
Overall bit rate : 1 716 Kbps
Writing application : r2431 ac76440
Writing library : Haali Writer b0

Video
ID : 1
Format : AVC
Format/Info : Advanced Video Codec
Format profile : [email protected]
Format settings, CABAC : Yes
Format settings, ReFrames : 8 frames
Codec ID : V_MPEG4/ISO/AVC
Duration : 1h 15mn
Bit rate : 1 682 Kbps
Width : 1 280 pixels
Height : 720 pixels
Display aspect ratio : 16:9
Frame rate mode : Constant
Frame rate : 23.976 fps
Color space : YUV
Chroma subsampling : 4:2:0
Bit depth : 8 bits
Scan type : Progressive
Bits/(Pixel*Frame) : 0.076
Stream size : 912 MiB (98%)
Writing library : core 142 r2431 ac76440
Encoding settings : cabac=1 / ref=8 / deblock=1:-1:-1 / analyse=0x3:0x133 / me=umh / subme=10 / psy=1 / psy_rd=1.00:0.15 / mixed_ref=1 / me_range=32 / chroma_me=1 / trellis=2 / 8x8dct=1 / cqm=0 / deadzone=21,11 / fast_pskip=0 / chroma_qp_offset=-3 / threads=12 / lookahead_threads=1 / sliced_threads=0 / nr=0 / decimate=1 / interlaced=0 / bluray_compat=0 / constrained_intra=0 / bframes=3 / b_pyramid=2 / b_adapt=2 / b_bias=0 / direct=3 / weightb=1 / open_gop=0 / weightp=2 / keyint=240 / keyint_min=23 / scenecut=40 / intra_refresh=0 / rc_lookahead=60 / rc=crf / mbtree=1 / crf=18.0 / qcomp=0.60 / qpmin=0 / qpmax=69 / qpstep=4 / vbv_maxrate=31250 / vbv_bufsize=31250 / crf_max=0.0 / nal_hrd=none / filler=0 / ip_ratio=1.40 / aq=1:1.00
Language : English
Default : Yes
Forced : No
log CRF19
--[Information] [03.07.2014 17:35:02] Job commandline: "C:\Program Files (x86)\MeGUI\tools\\avs4x264mod.exe" --level 4.1 --preset slower --tune film --crf 19.0 --keyint 240 --vbv-bufsize 31250 --vbv-maxrate 31250 --merange 32 --subme 10 --no-fast-pskip --sar 1:1 --output "batman 720." "batman 720.avs"
--[Information] [03.07.2014 17:35:02] Process started
--[Information] [03.07.2014 17:35:02] Standard output stream
---[Information] [03.07.2014 19:24:07] avs [info]: AviSynth 2.60, build:May 16 2012 [03:31:34]
---[Information] [03.07.2014 19:24:07] avs [info]: Video colorspace: YV12
---[Information] [03.07.2014 19:24:07] avs [info]: Video resolution: 1280x720
---[Information] [03.07.2014 19:24:07] avs [info]: Video framerate: 24000/1001
---[Information] [03.07.2014 19:24:07] avs [info]: Video framecount: 109104
---[Information] [03.07.2014 19:24:07] avs4x264 [info]: "x264_64" - --level 4.1 --preset slower --tune film --crf 19.0 --keyint 240 --vbv-bufsize 31250 --vbv-maxrate 31250 --merange 32 --subme 10 --no-fast-pskip --sar 1:1 --output "batman 720." --frames 109104 --fps 24000/1001 --input-res 1280x720 --input-csp i420
--[Information] [03.07.2014 17:35:02] Standard error stream
---[Information] [03.07.2014 17:35:08] raw [info]: 1280x720p 1:1 @ 24000/1001 fps (cfr)
---[Information] [03.07.2014 17:35:08] [info]: using SAR=1/1
---[Information] [03.07.2014 17:35:08] [info]: using cpu capabilities: MMX2 SSE2Fast SSSE3 SSE4.2 AVX
---[Information] [03.07.2014 17:35:08] [info]: profile High, level 4.1
---[Information] [03.07.2014 19:24:00] [info]: frame I:1467 Avg QP:14.17 size: 78075
---[Information] [03.07.2014 19:24:00] [info]: frame P:34563 Avg QP:18.65 size: 13265
---[Information] [03.07.2014 19:24:00] [info]: frame B:73074 Avg QP:20.60 size: 3636
---[Information] [03.07.2014 19:24:00] [info]: consecutive B-frames: 5.0% 6.9% 30.3% 57.8%
---[Information] [03.07.2014 19:24:00] [info]: mb I I16..4: 15.5% 56.7% 27.9%
---[Information] [03.07.2014 19:24:00] [info]: mb P I16..4: 1.6% 5.7% 1.9% P16..4: 29.6% 6.8% 9.1% 0.4% 0.2% skip:44.7%
---[Information] [03.07.2014 19:24:00] [info]: mb B I16..4: 0.1% 0.4% 0.2% B16..8: 25.0% 3.4% 0.9% direct: 1.1% skip:68.8% L0:48.9% L1:48.1% BI: 3.0%
---[Information] [03.07.2014 19:24:00] [info]: 8x8 transform intra:59.9% inter:50.2%
---[Information] [03.07.2014 19:24:00] [info]: direct mvs spatial:99.8% temporal:0.2%
---[Information] [03.07.2014 19:24:00] [info]: coded y,uvDC,uvAC intra: 50.9% 50.3% 34.4% inter: 4.8% 4.6% 1.3%
---[Information] [03.07.2014 19:24:00] [info]: i16 v,h,dc,p: 47% 24% 8% 22%
---[Information] [03.07.2014 19:24:00] [info]: i8 v,h,dc,ddl,ddr,vr,hd,vl,hu: 17% 12% 26% 6% 8% 7% 8% 7% 10%
---[Information] [03.07.2014 19:24:00] [info]: i4 v,h,dc,ddl,ddr,vr,hd,vl,hu: 18% 14% 14% 9% 10% 8% 9% 8% 10%
---[Information] [03.07.2014 19:24:00] [info]: i8c dc,h,v,p: 49% 27% 16% 9%
---[Information] [03.07.2014 19:24:00] [info]: Weighted P-Frames: Y:1.6% UV:1.4%
---[Information] [03.07.2014 19:24:00] [info]: ref P L0: 51.3% 4.1% 17.6% 8.4% 5.5% 5.5% 4.0% 2.9% 0.8% 0.0%
---[Information] [03.07.2014 19:24:00] [info]: ref B L0: 69.7% 12.4% 8.3% 3.6% 2.9% 1.9% 1.1%
---[Information] [03.07.2014 19:24:00] [info]: ref B L1: 91.3% 8.7%
---[Information] [03.07.2014 19:24:00] [info]: kb/s:1474.42
---[Information] [03.07.2014 19:24:00] encoded 109104 frames, 16.70 fps, 1474.42 kb/s
---[Information] [03.07.2014 19:24:02] Stream with high frequencies VQ coding
---[Information] [03.07.2014 19:24:05] Failed to open Batman Under The Red Hood 2010 Blu-ray 1080p VC-1 -HD MA 5.1 tater44-BluRG\BDMV\CLIPINF\00020.clpi
---[Information] [03.07.2014 19:24:05] Failed to open Batman Under The Red Hood 2010 Blu-ray 1080p VC-1 -HD MA 5.1 tater44-BluRG\BDMV\BACKUP/CLIPINF\00020.clpi
---[Information] [03.07.2014 19:24:05] Failed to open Batman Under The Red Hood 2010 Blu-ray 1080p VC-1 -HD MA 5.1 tater44-BluRG\BDMV\CLIPINF\00020.clpi
---[Information] [03.07.2014 19:24:05] Failed to open Batman Under The Red Hood 2010 Blu-ray 1080p VC-1 -HD MA 5.1 tater44-BluRG\BDMV\BACKUP/CLIPINF\00020.clpi
--[Information] [03.07.2014 19:24:14] Final statistics
---[Information] [03.07.2014 19:24:14] Constant Quality Mode: Quality 19 computed...
---[Information] [03.07.2014 19:24:14] Video Bitrate Obtained (approximate): 1475 kbit/s
log CRF18
--[Information] [03.07.2014 22:48:41] Job commandline: "C:\Program Files (x86)\MeGUI\tools\\avs4x264mod.exe" --level 4.1 --preset slower --tune film --crf 18.0 --keyint 240 --vbv-bufsize 31250 --vbv-maxrate 31250 --merange 32 --subme 10 --no-fast-pskip --sar 1:1 --output "batman 720 2." "batman 720.avs"
--[Information] [03.07.2014 22:48:41] Process started
--[Information] [03.07.2014 22:48:41] Standard output stream
--[Information] [03.07.2014 22:48:41] Standard error stream
---[Information] [03.07.2014 22:48:44] raw [info]: 1280x720p 1:1 @ 24000/1001 fps (cfr)
---[Information] [03.07.2014 22:48:44] [info]: using SAR=1/1
---[Information] [03.07.2014 22:48:44] [info]: using cpu capabilities: MMX2 SSE2Fast SSSE3 SSE4.2 AVX
---[Information] [03.07.2014 22:48:44] [info]: profile High, level 4.1
---[Information] [04.07.2014 0:42:22] [info]: frame I:1467 Avg QP:12.86 size: 89253
---[Information] [04.07.2014 0:42:22] [info]: frame P:34560 Avg QP:17.46 size: 15470
---[Information] [04.07.2014 0:42:22] [info]: frame B:73077 Avg QP:19.59 size: 4237
---[Information] [04.07.2014 0:42:22] [info]: consecutive B-frames: 5.0% 6.9% 30.3% 57.8%
---[Information] [04.07.2014 0:42:22] [info]: mb I I16..4: 16.6% 55.1% 28.3%
---[Information] [04.07.2014 0:42:22] [info]: mb P I16..4: 1.5% 5.7% 2.2% P16..4: 30.8% 8.5% 9.2% 0.5% 0.2% skip:41.5%
---[Information] [04.07.2014 0:42:22] [info]: mb B I16..4: 0.1% 0.4% 0.2% B16..8: 26.3% 4.0% 1.1% direct: 1.3% skip:66.6% L0:48.9% L1:47.7% BI: 3.4%
---[Information] [04.07.2014 0:42:22] [info]: 8x8 transform intra:58.9% inter:47.4%
---[Information] [04.07.2014 0:42:22] [info]: direct mvs spatial:99.8% temporal:0.2%
---[Information] [04.07.2014 0:42:22] [info]: coded y,uvDC,uvAC intra: 54.3% 53.8% 38.7% inter: 5.6% 5.4% 1.8%
---[Information] [04.07.2014 0:42:22] [info]: i16 v,h,dc,p: 50% 22% 9% 20%
---[Information] [04.07.2014 0:42:22] [info]: i8 v,h,dc,ddl,ddr,vr,hd,vl,hu: 16% 12% 27% 6% 7% 6% 8% 7% 10%
---[Information] [04.07.2014 0:42:22] [info]: i4 v,h,dc,ddl,ddr,vr,hd,vl,hu: 18% 14% 14% 9% 10% 8% 9% 8% 10%
---[Information] [04.07.2014 0:42:22] [info]: i8c dc,h,v,p: 50% 26% 16% 9%
---[Information] [04.07.2014 0:42:22] [info]: Weighted P-Frames: Y:1.6% UV:1.4%
---[Information] [04.07.2014 0:42:22] [info]: ref P L0: 50.2% 3.7% 17.9% 8.8% 5.8% 5.6% 4.1% 3.0% 0.9% 0.0%
---[Information] [04.07.2014 0:42:22] [info]: ref B L0: 67.7% 13.3% 8.8% 3.9% 3.1% 2.1% 1.2%
---[Information] [04.07.2014 0:42:22] [info]: ref B L1: 90.5% 9.5%
---[Information] [04.07.2014 0:42:22] [info]: kb/s:1714.50
---[Information] [04.07.2014 0:42:22] encoded 109104 frames, 16.00 fps, 1714.50 kb/s
---[Information] [04.07.2014 0:42:23] Stream with high frequencies VQ coding
---[Information] [04.07.2014 0:42:25] Failed to open Batman Under The Red Hood 2010 Blu-ray 1080p VC-1 -HD MA 5.1 tater44-BluRG\BDMV\CLIPINF\00020.clpi
---[Information] [04.07.2014 0:42:25] Failed to open Batman Under The Red Hood 2010 Blu-ray 1080p VC-1 -HD MA 5.1 tater44-BluRG\BDMV\BACKUP/CLIPINF\00020.clpi
---[Information] [04.07.2014 0:42:25] Failed to open Batman Under The Red Hood 2010 Blu-ray 1080p VC-1 -HD MA 5.1 tater44-BluRG\BDMV\CLIPINF\00020.clpi
---[Information] [04.07.2014 0:42:25] Failed to open Batman Under The Red Hood 2010 Blu-ray 1080p VC-1 -HD MA 5.1 tater44-BluRG\BDMV\BACKUP/CLIPINF\00020.clpi
---[Information] [04.07.2014 0:42:25] avs [info]: AviSynth 2.60, build:May 16 2012 [03:31:34]
---[Information] [04.07.2014 0:42:25] avs [info]: Video colorspace: YV12
---[Information] [04.07.2014 0:42:25] avs [info]: Video resolution: 1280x720
---[Information] [04.07.2014 0:42:25] avs [info]: Video framerate: 24000/1001
---[Information] [04.07.2014 0:42:25] avs [info]: Video framecount: 109104
---[Information] [04.07.2014 0:42:25] avs4x264 [info]: "x264_64" - --level 4.1 --preset slower --tune film --crf 18.0 --keyint 240 --vbv-bufsize 31250 --vbv-maxrate 31250 --merange 32 --subme 10 --no-fast-pskip --sar 1:1 --output "batman 720 2." --frames 109104 --fps 24000/1001 --input-res 1280x720 --input-csp i420
--[Information] [04.07.2014 0:42:28] Final statistics
---[Information] [04.07.2014 0:42:28] Constant Quality Mode: Quality 18 computed...
---[Information] [04.07.2014 0:42:28] Video Bitrate Obtained (approximate): 1715 kbit/s
Мені не складно зробити ще один ріп, або викласти CRF19, але цікаво все-таки зрозуміти, в чому причина. Поки що єдина теорія - пошкоджені сектори (множина!) в рамках файлу ріпу, але в це не дуже віриться, бо вони би мали пошкодитися після запису файлу.

Hentaihunter 
VIP


З нами з: 16.08.08
Востаннє: 18.08.17
Повідомлень: 2362

2014-07-28 22:26  
Пане адмін, принаймні проблему на першому скріні підтвердив ще один користувач, а робити чи ні новий ріп, то суто ваша справа. Бед-блоків на гвинті в мене нема, перевіряв програмою Victoria.
Мельниченко 
Свій


З нами з: 27.08.09
Востаннє: 02.07.16
Повідомлень: 145

2014-07-29 19:00  
Переклад чудовий Happy
У мене був один артефакт, але тупанув подивитись на якому відтинку, але десь ближче до початку.

DukeNukem 
VIP


З нами з: 15.01.09
Востаннє: 18.08.17
Повідомлень: 430

2014-07-30 01:36  
Артефакти були аналогічні.
Стосовно мультфільму можу сказати, що він доволі не поганий. З цього туру я тільки його і хотів подивитися, але певні проблеми в ньому є, це по перше рейтинг PG13, а по друге, аж занадто банальний сюжет. Маю надію, що будуть перекладатися й інші мультфільми про бетмена.

Konfucius 
Управління
Управління


З нами з: 30.09.07
Востаннє: 18.08.17
Повідомлень: 4939

2014-07-30 16:04  
Торрент оновлено.
Віктор 
Відео Гуртом - субтитрування
Відео Гуртом - субтитрування


З нами з: 09.01.10
Востаннє: 11.08.17
Повідомлень: 8686

2014-10-29 17:22  
Неділя 2 листопада, ictv, 05:35
Ваш часовий пояс: GMT + 2 Години

Нова тема   Відповісти