Феї: Таємниця піратського острова / The Pirate Fairy (2014) 720p Ukr/Eng | Sub Eng

Нові коментарі

Нова тема   Відповісти
Автор Повідомлення
omm 
Відео Гуртом - фільмокрай
Відео Гуртом - фільмокрай


З нами з: 12.06.12
Востаннє: 20.08.17
Повідомлень: 2198

2014-07-23 10:46  
Феї: Таємниця піратського острова / The Pirate Fairy (2014) 720p Ukr/Eng | Sub Eng

Феї: Таємниця піратського острова / The Pirate Fairy (2014) 720p Ukr/Eng | Sub Eng


Жанр: анімація, дитячий, пригодницький, фентезі
Країна: США


Кінокомпанія: DisneyToon Studios, Prana Animation Studios, Prana Studios
Режисер: Пеґґі Голмс
Актори: Крістіна Гендрікс, Мей Вітман, Том Гідлстон, Памела Адлон, Анджела Бартіс, Меґан Гілті, Люсі Лью, Рейвен, Джим Каммінґс, Кевін Майкл Річардсон та інші

Сюжет:
Історія про Заріну, тямущу і амбітну фею, яка збирає пилок рослин. Все починається з того, що вона викрадає чарівний пилок фей...

Тривалість: 01:18:05
Якість: 720p
Відео:
кодек: AVC
розмір кадру: 1280 х 720
бітрейт: 4717 кб/с

Аудіо # 1:
мова: українська
переклад: професійний дубльований
кодек: 2.0
бітрейт: 192 кб/с

Аудіо # 2:
мова: англійська
переклад: оригінал
кодек: 5.1
бітрейт: 448 кб/с

Субтитри:
мова: англійська (повні, форсовані)
тип: програмні (м'які)
формат: *.srt
Info
C:\The Pirate Fairy.2014.720p.BluRay.-LEONARDO_[scarabey.org] (1).
General
Complete name : C:\The Pirate Fairy.2014.720p.BluRay.-LEONARDO_[scarabey.org] (1).
Format :
File size : 2.98 GiB
Duration : 1h 18mn
Overall bit rate : 5 466 Kbps
Movie name : -=LEONARDO=-
Encoded date : UTC 2014-07-22 17:37:34
Writing application : mkvmerge v6.8.0 ('Theme for Great Cities') 32bit built on Mar 2 2014 21:27:07
Writing library : libebml v1.3.0 + libmatroska v1.4.1
Video #1
ID : 1
Format : AVC
Format/Info : Advanced Video Codec
Format profile : [email protected]
Format settings, CABAC : Yes
Format settings, ReFrames : 9 frames
Muxing mode : Container [email protected]
Codec ID : V_MPEG4/ISO/AVC
Duration : 1h 18mn
Bit rate : 4 717 Kbps
Width : 1 280 pixels
Height : 720 pixels
Display aspect ratio : 16:9
Frame rate : 23.976 fps
Resolution : 8 bits
Colorimetry : 4:2:0
Scan type : Progressive
Bits/(Pixel*Frame) : 0.213
Stream size : 2.57 GiB (86%)
Writing library : core 125 r2208 d9d2288
Encoding settings : cabac=1 / ref=9 / deblock=1:-3:-3 / analyse=0x3:0x133 / me=tesa / subme=11 / psy=1 / psy_rd=1.00:0.20 / mixed_ref=1 / me_range=32 / chroma_me=1 / trellis=2 / 8x8dct=1 / cqm=0 / deadzone=21,11 / fast_pskip=0 / chroma_qp_offset=-3 / threads=12 / lookahead_threads=2 / sliced_threads=0 / nr=0 / decimate=1 / interlaced=0 / bluray_compat=0 / constrained_intra=0 / bframes=8 / b_pyramid=2 / b_adapt=2 / b_bias=0 / direct=1 / weightb=1 / open_gop=0 / weightp=2 / keyint=250 / keyint_min=23 / scenecut=40 / intra_refresh=0 / rc=crf / mbtree=0 / crf=17.8 / qcomp=0.60 / qpmin=0 / qpmax=69 / qpstep=4 / ip_ratio=1.40 / pb_ratio=1.30 / aq=2:1.00
Audio #2
ID : 2
Format : AC-3
Format/Info : Audio Coding 3
Format_Settings_ModeExtension : CM (complete main)
Codec ID : A_AC3
Duration : 1h 18mn
Bit rate mode : Constant
Bit rate : 192 Kbps
Channel(s) : 2 channels
Channel positions : Front: L R
Sampling rate : 48.0 KHz
Stream size : 107 MiB (4%)
Title : Українська професійний дубльований переклад (MEGOGO.NET)
Language : Ukrainian
Audio #3
ID : 3
Format : AC-3
Format/Info : Audio Coding 3
Format_Settings_ModeExtension : CM (complete main)
Codec ID : A_AC3
Duration : 1h 18mn
Bit rate mode : Constant
Bit rate : 448 Kbps
Channel(s) : 6 channels
Channel positions : Front: L C R, Side: L R, LFE
Sampling rate : 48.0 KHz
Stream size : 250 MiB (8%)
Title : Оригінал
Text #4
ID : 4
Format : UTF-8
Codec ID : S_TEXT/UTF8
Codec ID/Info : UTF-8 Plain Text
Title : Повні англійські субтитри (iTunes)
Text #5
ID : 5
Format : UTF-8
Codec ID : S_TEXT/UTF8
Codec ID/Info : UTF-8 Plain Text
Title : Форсовані англійські субтитри (iTunes)
Скріншоти
Подяка за українську доріжку п.Vasua95
Джерело:


 Трекер:    Зареєстрований   

Завантажити / скачати мультфільм українською



відео для новачків



 Зареєстрований:   2014-07-23 10:46
 Розмір:   2.98 GB 
 Оцінка мультфільму:   9.7/10 (Голосів: 31)
   
igor911 
Відео Гуртом
Відео Гуртом


З нами з: 18.01.08
Востаннє: 20.08.17
Повідомлень: 7301

2014-07-23 16:42  
Цікаво, що в назві файлу релізер забув поміняти 1080p на 720p.
omm 
Відео Гуртом - фільмокрай
Відео Гуртом - фільмокрай


З нами з: 12.06.12
Востаннє: 20.08.17
Повідомлень: 2198

2014-07-24 10:10  
igor911 написано:
Цікаво, що в назві файлу релізер забув поміняти 1080p на 720p.

так, не помітив. Нічого, кому це суттєво - поміняє. Основне, що в описі все вірно вказано.

EvGaS 
Відео Гуртом - підтримка та поширення
Відео Гуртом - підтримка та поширення


З нами з: 27.02.12
Востаннє: 20.08.17
Повідомлень: 3332

2014-08-12 06:28  
Краще, ніж очікував.
(той неочікуваний момент, коли рекламний постер гірший за фільм)

Можна дивитись не тільки дітям, а й сім'єю. (спасає гарний продуманий піратський персонаж))))
Ну й трохи звірюка. ))

Онтар 
Новенький


З нами з: 22.09.14
Востаннє: 16.08.17
Повідомлень: 6

2014-09-24 13:30  
Дуже Хороший мультфільм
Dellariver 
Свій


З нами з: 14.01.12
Востаннє: 20.08.17
Повідомлень: 127

2015-04-10 14:32  
Дякую
Ваш часовий пояс: GMT + 2 Години

Нова тема   Відповісти