Феї: Таємниця піратського острова / The Pirate Fairy (2014) 1080p Ukr/Eng | Sub Eng

Нові коментарі

Нова тема   Відповісти
Автор Повідомлення
Anonymous 







2014-07-20 16:24  
Феї: Таємниця піратського острова / The Pirate Fairy (2014) 1080p Ukr/Eng | Sub Eng



Жанр: анімація, пригодницький, фентезі, дитячий, сімейний
Країна: США



Кінокомпанія: DisneyToon Studios, Prana Animation Studios, Prana Studios
Режисер: Пеґґі Голмс / Peggy Holmes
Ролі озвучили (в оригіналі): Крістіна Гендрікс, Мей Вітман, Том Гідлстон, Памела Адлон, Анджела Бартіс, Меґан Гілті, Люсі Лью, Рейвен, Джим Каммінґс, Кевін Майкл Річардсон

Сюжет:
Історія про Заріну, тямущу і амбітну фею, яка збирає пилок рослин. Все починається з того, що вона викрадає чарівний пилок фей...


Рейтинг MPAA: G - нема вікових обмежень
Вікова категорія: 0+

Тривалість: 01:18:05
Якість: 1080p [DON]
Відео:
кодек:
розмір кадру: 1920 х 1080
бітрейт: 11,3 Мбіт/с [crf=16]

Аудіо # 1:
мова: українська - LeDoyen Studio
переклад: професійний дубльований
кодек: 2.0
бітрейт: 192 кбіт/с
ролі дублювали: Марина Локтіонова, Катерина Качан, Ігор Тимошенко.

Аудіо # 2:
мова: англійська
переклад: оригінал
кодек: 5.1
бітрейт: 1536 кбіт/с

Аудіо # 3:
мова: англійська
переклад: Description
кодек: 2.0
бітрейт: 320 кбіт/с

Субтитри # 1-2:
мова: англійська (повні), англійська (SDH)
тип: програмні (м'які)
формат: *.srt

Збережено оригінальні розділи, як на Blu-ray.
Info
Код:
General
Unique ID                                : 210718169383540891699946322583450521749 (0x9E86D7DD8AE9FF2DAD53B0C70E6B9095)
Complete name                            : The Pirate Fairy (2014) [Ukr,Eng sub.Eng] 1080p [Hurtom].
Format                                   :
Format version                           : Version 4 / Version 2
File size                                : 7.44 GiB
Duration                                 : 1h 18mn
Overall bit rate                         : 13.6 Mbps
Movie name                               : Феї: Таємниця піратського острова / The Pirate Fairy (2014) 1080p [Hurtom]
Encoded date                             : UTC 2014-07-20 12:26:10
Writing application                      : mkvmerge v7.0.0 ('Where We Going') 64bit built on Jun  9 2014 15:16:27
Writing library                          : libebml v1.3.0 + libmatroska v1.4.1
DURATION                                 : 01:18:05.312000000
NUMBER_OF_FRAMES                         : 146416
NUMBER_OF_BYTES                          : 112447488
_STATISTICS_WRITING_APP                  : mkvmerge v7.0.0 ('Where We Going') 64bit built on Jun  9 2014 15:16:27
_STATISTICS_WRITING_DATE_UTC             : 2014-07-20 12:26:10
_STATISTICS_TAGS                         : BPS DURATION NUMBER_OF_FRAMES NUMBER_OF_BYTES

Video
ID                                       : 1
Format                                   : AVC
Format/Info                              : Advanced Video Codec
Format profile                           : [email protected]
Format settings, CABAC                   : Yes
Format settings, ReFrames                : 4 frames
Codec ID                                 : V_MPEG4/ISO/AVC
Duration                                 : 1h 18mn
Bit rate                                 : 11.3 Mbps
Width                                    : 1 920 pixels
Height                                   : 1 080 pixels
Display aspect ratio                     : 16:9
Frame rate mode                          : Constant
Frame rate                               : 23.976 fps
Color space                              : YUV
Chroma subsampling                       : 4:2:0
Bit depth                                : 8 bits
Scan type                                : Progressive
Bits/(Pixel*Frame)                       : 0.228
Stream size                              : 6.19 GiB (83%)
Title                                    : Феї: Таємниця піратського острова / The Pirate Fairy / Феи: Загадка пиратского острова (2014) 1080p [HDBits-DON]
Writing library                          : core 142 r2431+42 c69a006 tMod [[email protected] X86_64]
Encoding settings                        : cabac=1 / ref=4 / deblock=1:-3:-3 / analyse=0x3:0x133 / me=umh / subme=11 / psy=1 / fade_compensate=0.00 / psy_rd=0.50:0.00 / mixed_ref=1 / me_range=32 / chroma_me=1 / trellis=2 / 8x8dct=1 / cqm=0 / deadzone=21,11 / fast_pskip=0 / chroma_qp_offset=-2 / threads=12 / lookahead_threads=2 / sliced_threads=0 / nr=0 / decimate=0 / interlaced=0 / bluray_compat=0 / constrained_intra=0 / fgo=0 / bframes=7 / b_pyramid=2 / b_adapt=2 / b_bias=0 / direct=3 / weightb=1 / open_gop=0 / weightp=2 / keyint=250 / keyint_min=24 / scenecut=40 / intra_refresh=0 / rc_lookahead=250 / rc=crf / mbtree=0 / crf=16.0000 / qcomp=0.70 / qpmin=0:0:0 / qpmax=69:69:69 / qpstep=4 / vbv_maxrate=38000 / vbv_bufsize=30000 / crf_max=0.0 / nal_hrd=none / filler=0 / ip_ratio=1.40 / pb_ratio=1.15 / aq=4:0.80 / aq-sensitivity=10.00 / aq-factor=1.00:1.00:1.00 / aq2=0 / aq3=0 / zones=20542,20599,crf=14,deblock=1:0,aq-strength=0.9,psy-rd=0.4/24840,24898,crf=14,deblock=1:0,aq-strength=0.9,psy-rd=0.4/24928,25028,crf=14,deblock=1:0,aq-strength=0.9,psy-rd=0.4/33152,33317,crf=14,deblock=2:1,aq-strength=0.9,psy-rd=0.4/74157,74413,crf=14,deblock=1:0,aq-strength=0.9,psy-rd=0.4/85846,85966,crf=14,deblock=1:0,aq-strength=0.9,psy-rd=0.4/92856,93440,crf=14,deblock=1:0,aq-strength=0.9,psy-rd=0.4/96918,97025,crf=14,deblock=1:0,aq-strength=0.9,psy-rd=0.4/97361,97471,crf=14,deblock=1:0,aq-strength=0.9,psy-rd=0.4
Language                                 : English
Default                                  : Yes
Forced                                   : No
DURATION                                 : 01:18:05.223000000
NUMBER_OF_FRAMES                         : 112333
NUMBER_OF_BYTES                          : 6801869770
_STATISTICS_WRITING_APP                  : mkvmerge v7.0.0 ('Where We Going') 64bit built on Jun  9 2014 15:16:27
_STATISTICS_WRITING_DATE_UTC             : 2014-07-20 12:26:10
_STATISTICS_TAGS                         : BPS DURATION NUMBER_OF_FRAMES NUMBER_OF_BYTES

Audio #1
ID                                       : 2
Format                                   : AC-3
Format/Info                              : Audio Coding 3
Mode extension                           : CM (complete main)
Format settings, Endianness              : Big
Codec ID                                 : A_AC3
Duration                                 : 1h 18mn
Bit rate mode                            : Constant
Bit rate                                 : 192 Kbps
Channel(s)                               : 2 channels
Channel positions                        : Front: L R
Sampling rate                            : 48.0 KHz
Bit depth                                : 16 bits
Compression mode                         : Lossy
Stream size                              : 107 MiB (1%)
Title                                    : Dub [Le Doyen-Megogo] 2.0 192 Kbps [Hurtom-Vasua95][-32ms]
Language                                 : Ukrainian
Default                                  : Yes
Forced                                   : No

Audio #2
ID                                       : 3
Format                                   :
Format/Info                              : Digital Theater Systems
Mode                                     : 16
Format settings, Endianness              : Big
Codec ID                                 : A_DTS
Duration                                 : 1h 18mn
Bit rate mode                            : Constant
Bit rate                                 : 1 509 Kbps
Channel(s)                               : 6 channels
Channel positions                        : Front: L C R, Side: L R, LFE
Sampling rate                            : 48.0 KHz
Bit depth                                : 24 bits
Compression mode                         : Lossy
Stream size                              : 843 MiB (11%)
Title                                    : Original 5.1 1536 Kbps
Language                                 : English
Default                                  : No
Forced                                   : No

Audio #3
ID                                       : 4
Format                                   : AC-3
Format/Info                              : Audio Coding 3
Format profile                           : Dolby Digital
Mode extension                           : CM (complete main)
Format settings, Endianness              : Big
Codec ID                                 : A_AC3
Duration                                 : 1h 18mn
Bit rate mode                            : Constant
Bit rate                                 : 320 Kbps
Channel(s)                               : 2 channels
Channel positions                        : Front: L R
Sampling rate                            : 48.0 KHz
Bit depth                                : 16 bits
Compression mode                         : Lossy
Stream size                              : 179 MiB (2%)
Title                                    : Description 2.0 320 Kbps
Language                                 : English
Default                                  : No
Forced                                   : No

Text #1
ID                                       : 5
Format                                   : UTF-8
Codec ID                                 : S_TEXT/UTF8
Codec ID/Info                            : UTF-8 Plain Text
Title                                    : Eng full
Language                                 : English
Default                                  : No
Forced                                   : No

Text #2
ID                                       : 6
Format                                   : UTF-8
Codec ID                                 : S_TEXT/UTF8
Codec ID/Info                            : UTF-8 Plain Text
Title                                    : Eng SDH
Language                                 : English
Default                                  : No
Forced                                   : No

Menu
00:00:00.000                             : :00:00:00.000
00:04:05.996                             : :00:04:05.996
00:07:36.665                             : :00:07:36.665
00:14:32.747                             : :00:14:32.747
00:20:17.925                             : :00:20:17.925
00:28:10.814                             : :00:28:10.814
00:33:03.607                             : :00:33:03.607
00:40:12.201                             : :00:40:12.201
00:45:53.334                             : :00:45:53.334
00:53:51.520                             : :00:53:51.520
01:03:41.609                             : :01:03:41.609
01:08:40.742                             : :01:08:40.742





Джерела та подяки:
ріп відео, оригінальні звук та субтитри - DON (HDbits); українська доріжка - Vasua95 (Гуртом).

Особиста оцінка: 10 - рекомендую всім дітям та їх батькам


ЗАЛИШАЙТЕСЬ ЯКОМОГА ДОВШЕ НА РОЗДАЧІ!

СКАЧАВ САМ - ДАЙ СКАЧАТИ ІНШИМ


 Трекер:    Зареєстрований   

Завантажити / скачати мультфільм українською



відео для новачків



 Зареєстрований:   2014-07-20 16:24
 Розмір:   7.44 GB 
 Оцінка мультфільму:   6.7/10 (Голосів: 31)
   
Doctor_Digital 
Частий відвідувач


З нами з: 05.10.12
Востаннє: 03.07.17
Повідомлень: 41

2014-08-31 10:24  
А можна доріжку рідною мовою окремо викласти?
Anonymous 







2014-08-31 10:30  
Нажаль, поки не маю змоги викласти звук окремо, качни один з релізів на 1,45 Гб.
-VJ- 
VIP


З нами з: 01.11.09
Востаннє: 19.08.17
Повідомлень: 613

2014-11-16 12:16  
може злити цей реліз з квадрологією? Все ж таки це один кіносеріал.
Anonymous 







2014-11-16 20:25  
-VJ-, нажаль за цей час дещо змінились правила в розділі HD і деякі серії з моєї квадрології на пройдуть - нема ориг.звуку. Тому хай буде як є.
-VJ- 
VIP


З нами з: 01.11.09
Востаннє: 19.08.17
Повідомлень: 613

2014-11-16 21:18  
igor911 написано:
-VJ-, нажаль за цей час дещо змінились правила в розділі HD і деякі серії з моєї квадрології на пройдуть - нема ориг.звуку. Тому хай буде як є.


Хіба ж це проблема? В інтернеті є ці фільми з оригінальним звуком - можна скачати і зліпити релізи за правилами.

Anonymous 







2014-11-16 21:19  
так, але втратяться сіди
-VJ- 
VIP


З нами з: 01.11.09
Востаннє: 19.08.17
Повідомлень: 613

2014-11-16 21:22  
igor911 написано:
так, але втратяться сіди


Це тим паче не проблема - перекачають заново.

Особисто я всі мультфільми збираю з оригінальною озвучкою - дитині так найкраще іноземна мова вчиться, коли ставши кілька разів українською, щоб зрозумів сюжет, а надалі ставиш оригінальну доріжку.

Ваш часовий пояс: GMT + 2 Години

Нова тема   Відповісти