Крижане серце / Frozen (2013) Remux 1080p Ukr/Eng | Sub Eng/Fr/Es

Нові коментарі

Нова тема   Відповісти
Автор Повідомлення
smsfdg 
Новенький


З нами з: 02.04.14
Востаннє: 30.05.17
Повідомлень: 2

2014-07-19 21:16  
Крижане серце / Frozen (2013) Remux 1080p Ukr/Eng | Sub Eng/Fr/Es




Жанр: анімація, пригодницький, комедія
Країна: США

Кінокомпанія: Walt Disney Animation Studios, Walt Disney Pictures
Режисер: Кріс Бак, Дженніфер Лі
Актори: Крістен Белл, Ідіна Мензел, Джонатан Ґрофф, Джош Ґад, Сантіно Фонтана, Алан Тьюдік, Кіаран Гайндс, Кріс Вільямс, Стівен Джей Андерсон, Мая Вілсон

Сюжет:
Коли стародавнє пророцтво здійснюється і королівство занурюється в обійми вічної зими, троє безстрашних героїв - принцеса Анна, відважний Крістофф і його вірний олень Свен - відправляються в гори, щоб знайти сестру Анни, Ельзу, яка може зняти з країни закляття. По дорозі їх чекає безліч захоплюючих сюрпризів і захоплюючих пригод. Анні і Крістоффу належить об'єднатися і протистояти могутньої стихії, щоб врятувати королівство і тих, хто їм дорогий...

Тривалість: 01:42:13
Якість: Remux 1080p
Відео:
кодек:
розмір кадру: 1920 x 1080
бітрейт: 26696 кб/с

Аудіо # 1:
мова: українська
переклад: професійний дубльований
кодек: 5.1
бітрейт: 384 кб/с

Аудіо # 2:
мова: англійська
переклад: оригінал
кодек: 5.1
бітрейт: 1536 кб/с

Аудіо # 3:
мова: англійська
переклад: оригінал
кодек: 2.0
бітрейт: 320 кб/с - Descriptive

Субтитри(Forced):
мова: українська
тип: програмні (м'які)
формат: *.srt

Субтитри(SDH, SDH-COLORED):
мова: англійська
тип: програмні (м'які)
формат: *.srt

Субтитри #4
мова: французька
тип: програмні (м'які)
формат: PGS

Субтитри #5:
мова: іспанська
тип: програмні (м'які)
формат: PGS
Info

General
Unique ID : 240852129669248756198035160530286768995 (0xB5326ED0908E6FDEA3690A4A4DB37363)
Complete name : H:\Cartoons\Frozen (2013) Remux 1080p.
Format :
Format version : Version 4 / Version 2
File size : 20.4 GiB
Duration : 1h 42mn
Overall bit rate mode : Variable
Overall bit rate : 28.6 Mbps
Encoded date : UTC 2014-07-19 16:17:30
Writing application : mkvmerge v7.0.0 ('Where We Going') 64bit built on Jun 9 2014 15:16:27
Writing library : libebml v1.3.0 + libmatroska v1.4.1
DURATION : 01:41:51.526000000
NUMBER_OF_FRAMES : 1990
NUMBER_OF_BYTES : 70941
_STATISTICS_WRITING_APP : mkvmerge v7.0.0 ('Where We Going') 64bit built on Jun 9 2014 15:16:27
_STATISTICS_WRITING_DATE_UTC : 2014-07-19 16:17:30
_STATISTICS_TAGS : BPS DURATION NUMBER_OF_FRAMES NUMBER_OF_BYTES

Video
ID : 1
Format : AVC
Format/Info : Advanced Video Codec
Format profile : [email protected]
Format settings, CABAC : Yes
Format settings, ReFrames : 4 frames
Format settings, GOP : M=3, N=12
Codec ID : V_MPEG4/ISO/AVC
Duration : 1h 42mn
Bit rate mode : Variable
Bit rate : 25.8 Mbps
Maximum bit rate : 28.0 Mbps
Width : 1 920 pixels
Height : 1 080 pixels
Display aspect ratio : 16:9
Frame rate mode : Constant
Frame rate : 23.976 fps
Color space : YUV
Chroma subsampling : 4:2:0
Bit depth : 8 bits
Scan type : Progressive
Bits/(Pixel*Frame) : 0.519
Stream size : 18.4 GiB (90%)
Language : English
Default : Yes
Forced : No

Audio #1
ID : 2
Format : AC-3
Format/Info : Audio Coding 3
Mode extension : CM (complete main)
Format settings, Endianness : Big
Codec ID : A_AC3
Duration : 1h 42mn
Bit rate mode : Constant
Bit rate : 384 Kbps
Channel(s) : 6 channels
Channel positions : Front: L C R, Side: L R, LFE
Sampling rate : 48.0 KHz
Bit depth : 16 bits
Compression mode : Lossy
Stream size : 281 MiB (1%)
Title : 5.1 @ 384 kbps
Language : Ukrainian
Default : Yes
Forced : Yes

Audio #2
ID : 3
Format :
Format/Info : Digital Theater Systems
Mode : 16
Format settings, Endianness : Big
Codec ID : A_DTS
Duration : 1h 42mn
Bit rate mode : Constant
Bit rate : 1 509 Kbps
Channel(s) : 6 channels
Channel positions : Front: L C R, Side: L R, LFE
Sampling rate : 48.0 KHz
Bit depth : 24 bits
Compression mode : Lossy
Delay relative to video : 11ms
Stream size : 1.08 GiB (5%)
Title : 5.1 @ 1536 kbps
Language : English
Default : No
Forced : No

Audio #3
ID : 4
Format : AC-3
Format/Info : Audio Coding 3
Format profile : Dolby Digital
Mode extension : CM (complete main)
Format settings, Endianness : Big
Codec ID : A_AC3
Duration : 1h 42mn
Bit rate mode : Constant
Bit rate : 320 Kbps
Channel(s) : 2 channels
Channel positions : Front: L R
Sampling rate : 48.0 KHz
Bit depth : 16 bits
Compression mode : Lossy
Stream size : 234 MiB (1%)
Title : 2.0 @ 320 kbps - Descriptive
Language : English
Default : No
Forced : No

Text #1
ID : 5
Format : UTF-8
Codec ID : S_TEXT/UTF8
Codec ID/Info : UTF-8 Plain Text
Title : Forced
Language : Ukrainian
Default : Yes
Forced : Yes

Text #2
ID : 6
Format : UTF-8
Codec ID : S_TEXT/UTF8
Codec ID/Info : UTF-8 Plain Text
Title : SDH
Language : English
Default : No
Forced : No

Text #3
ID : 7
Format : UTF-8
Codec ID : S_TEXT/UTF8
Codec ID/Info : UTF-8 Plain Text
Title : SDH-COLORED
Language : English
Default : No
Forced : No

Text #4
ID : 8
Format : PGS
Muxing mode : zlib
Codec ID : S_HDMV/PGS
Codec ID/Info : The same subtitle format used on BDs/HD-DVDs
Language : French
Default : No
Forced : No

Text #5
ID : 9
Format : PGS
Muxing mode : zlib
Codec ID : S_HDMV/PGS
Codec ID/Info : The same subtitle format used on BDs/HD-DVDs
Language : Spanish
Default : No
Forced : No

Menu
00:00:00.000 : en:00:00:00.000
00:05:59.818 : en:00:05:59.818
00:11:37.947 : en:00:11:37.947
00:19:53.734 : en:00:19:53.734
00:31:03.195 : en:00:31:03.195
00:38:39.484 : en:00:38:39.484
00:44:21.284 : en:00:44:21.284
00:50:51.507 : en:00:50:51.507
00:57:48.381 : en:00:57:48.381
01:02:57.399 : en:01:02:57.399
01:09:36.047 : en:01:09:36.047
01:13:34.869 : en:01:13:34.869
01:18:07.599 : en:01:18:07.599
01:22:33.740 : en:01:22:33.740
01:27:10.809 : en:01:27:10.809
01:32:33.506 : en:01:32:33.506
Скріншоти











Золотий реліз (завантажене не впливає на рейтинг)
 Трекер:    Зареєстрований   

Завантажити / скачати мультфільм українською



відео для новачків



 Зареєстрований:   2014-07-19 21:16
 Розмір:   20.41 GB 
 Оцінка мультфільму:   9.7/10 (Голосів: 20)
   
Інші релізи
   Крижане серце / Frozen (2013) 1080p [48 fps] Ukr/Eng | Sub Eng/Fra/Esp smsfdg  7 / 0   27.59 GB   2014-08-30 20:41 
   Крижане серце / Frozen (2013) 720p-mini [60fps] Drool  12 / 0   4.35 GB   2014-08-20 15:44 
   Закрижаніла / Крижане серце / Frozen (2013) 720p Eng | Sub Ukr Gedet  5 / 0   2.47 GB   2014-07-28 19:20 
   Крижане серце / Frozen (2013) AVC BASTERD-94  15 / 0   978 MB   2014-07-07 21:30 
   Крижане серце / Frozen (2013) 1080p 3D SideBySide Ukr/Eng | Sub Eng dinosaurus  3 / 0   5.96 GB   2014-06-15 16:06 
   Крижане серце / Frozen (2013) 720p-mini Drool  9 / 0   2.16 GB   2014-05-05 16:48 
   Крижане серце / Frozen (2013) 1080p Ukr/Eng | Sub Eng 11FrYkT  21 / 1   8.01 GB   2014-04-30 10:02 
   Крижане серце / Frozen (2013) 720p Ukr/Eng | Sub Eng 11FrYkT  27 / 0   4.05 GB   2014-04-30 08:30 
   Крижане серце / Frozen (2013) Ukr/Eng | Sub Ukr/Eng Gelios  138 / 0   1.45 GB   2014-04-29 23:12 
   Крижане серце / Frozen (2013) AVC Ukr/Eng | Sub Eng 11FrYkT  16 / 0   2.14 GB   2014-04-29 23:09 
Dr-Romchik 
Новенький


З нами з: 30.05.09
Востаннє: 19.08.17
Повідомлень: 14

2014-07-19 21:38  
Чі хтось може викладати оригінальні 3D ISO копіі?
ultracrip 
Новенький


З нами з: 15.04.14
Востаннє: 16.08.17
Повідомлень: 21

2014-07-24 23:21  
Якість просто супер!!!!!
Олег Студент 
Новенький


З нами з: 09.09.10
Востаннє: 05.08.17
Повідомлень: 4

2015-12-20 14:31  
Прошу користувачів посприяти роздачі !
Дякую! )

Ваш часовий пояс: GMT + 2 Години

Нова тема   Відповісти