Хронос / Chronos (1985) 720p

Нові коментарі

Нова тема   Відповісти
Автор Повідомлення
ErsGe 
Новенький


З нами з: 13.04.12
Востаннє: 13.11.19
Повідомлень: 5

2014-07-19 16:52  
Хронос / Chronos (1985) 720p

Хронос / Chronos (1985) 720p


Жанр: документальний
Країна: США, Канада

Режисер: Рон Фріке
Сюжет:
Видовий документальний фільм про людство і його основну динамічну складову - час. У фільмі відображені найвідоміші творіння природи і людини усіх часів. Від Гранд-каньйону до пірамід долини Гіза, від стародавніх храмів інків до величних соборів. Показана динаміка зміни людського буття на тлі цих грандіозних зберігачів незмінного плину часу.


Тривалість: 00:41:33
Якість:
Відео:
кодек:
розмір кадру: 1280 х 720
бітрейт: 4635 кб/с

Аудіо:
переклад: оригінал (музичний супровід)
кодек: 5.1
бітрейт: 384 кб/с
Скріншоти







Media Info

General
Complete name : D:\Кино\Chronos\Chronos_(1985)_HDTVRip...avi
Format : AVI
Format/Info : Audio Video Interleave
File size : 1.46 GiB
Duration : 41mn 33s
Overall bit rate : 5 024 Kbps
Writing application : VirtualDubMod 1.5.4.1 (build 2178/release)
Writing library : VirtualDubMod build 2178/release

Video
ID : 0
Format : MPEG-4 Visual
Format profile : Advanced [email protected]
Format settings, BVOP : Yes
Format settings, QPel : No
Format settings, GMC : No warppoints
Format settings, Matrix : Custom
Codec ID :
Codec ID/Hint :
Duration : 41mn 33s
Bit rate : 4 633 Kbps
Width : 1 280 pixels
Height : 720 pixels
Display aspect ratio : 16:9
Frame rate : 23.976 fps
Color space : YUV
Chroma subsampling : 4:2:0
Bit depth : 8 bits
Scan type : Progressive
Compression mode : Lossy
Bits/(Pixel*Frame) : 0.210
Stream size : 1.34 GiB (92%)
Writing library : 1.0.3 (UTC 2004-12-20)

Audio
ID : 1
Format : AC-3
Format/Info : Audio Coding 3
Mode extension : CM (complete main)
Codec ID : 2000
Duration : 41mn 32s
Bit rate mode : Constant
Bit rate : 384 Kbps
Channel(s) : 6 channels
Channel positions : Front: L C R, Side: L R, LFE
Sampling rate : 48.0 KHz
Bit depth : 16 bits
Compression mode : Lossy
Video delay : 20ms
Stream size : 114 MiB (8%)
Alignment : Split accross interleaves
Interleave, duration : 96 ms (2.30 video frames)
Interleave, preload duration : 96 ms
Джерело:
Особиста оцінка: 8 - мені сподобалося


 Трекер:    Зареєстрований   

Завантажити / скачати торрент



відео для новачків



 Зареєстрований:   2014-07-19 16:52
 Розмір:   1.46 GB 
 Оцінка:   9.1/10 (Голосів: 7)
   
Konfucius 
Управління
Управління


З нами з: 30.09.07
Востаннє: 20.11.19
Повідомлень: 5188

2014-07-20 14:33  
Бракує Info (звіту, який ви отримаєте за допомогою однойменної програми, див. цей реліз).
Ваш часовий пояс: GMT + 2 Години

Нова тема   Відповісти