Революція (Сезон 1) / Revolution (Season 1) (2012-2013) 720p Ukr/Eng

Нові коментарі

Нова тема   Відповісти
Останній раз роздавалося V.i.R.u.S (2018-05-19)
Автор Повідомлення
Dark Invader 
Модератор відео


З нами з: 06.01.11
Востаннє: 18.08.19
Повідомлень: 2709

2014-07-17 13:27  
Революція (Сезон 1) / Revolution (Season 1) (2012-2013) 720p Ukr/Eng

Революція (Сезон 1) / Revolution (Season 1) (2012-2013) 720p Ukr/Eng


Жанр: екшн, пригодницький, драма, фантастика
Країна: США



Кінокомпанія: Kripke Enterprises, Bad Robot Productions, Warner Bros. Television / NBC
Режисер: Джон Фавро та інші
Актори: Джанкарло Еспозіто, Біллі Берк, Андреа Рот, Тім Ґіні, Брендон Молале, Дж.Д. Пардо, Зак Орт та інші

Сюжет:
Наше життя залежить від електрики. А що буде, якщо вона раптово зникне? Раптово вся електрика відключається і світ поглинає темрява. Літаки падають, фабрики припиняють роботу, звязок і телекомунікації - не доступні.
Через 15 років, життя стало таким, яким воно було до промислової революції: сім'ї живуть у віддалених куточках, після заходу сонця запалюють свічки. На перший погляд жити стало спокійніше, але чи це так?


Тривалість: 1 серія: ~ 43 хв. (цілком серій: 20)
Перелік серій
01. Pilot
02. Chained Heat
03. No Quarter
04. The Plague Dogs
05. Soul Train
06. Sex and Drugs
07. The Children's Crusade
08. Ties That Bind
09. Kashmir
10. Nobody's Fault But Mine
11. The Stand
12. Ghosts
13. The Song Remains the Same
14. The Night the Lights Went Out in Georgia
15. Home
16. The Love Boat
17. The Longest Day
18. Clue
19. Children of Men
20. The Dark Tower
Якість:
Відео:
кодек:
розмір кадру: 1 280 х 720
бітрейт: ~ 4 000 кб/с

Аудіо # 1:
мова: українська
переклад: багатоголосий закадровий
кодек: 2.0
бітрейт: 192 кб/с

Аудіо # 2:
мова: англійська
переклад: оригінал
кодек: 5.1
бітрейт: 384 кб/с

Переклад і озвучення виконано:
студією "Так Треба Продакшн" на замовлення телеканалу

Info
General
Unique ID : 218926520658491177318811341079342416171 (0xA4B3B6D43779CCBBABB33D50AFBB012B)
Complete name : D:\Нова папка\Revolution - Season 1 (2012-2013) 720p [Ukr, Eng]\Revolution - S01E01 (2012-2013) 720p [Ukr, Eng].
Format :
Format version : Version 4 / Version 2
File size : 1.38 GiB
Duration : 43mn 21s
Overall bit rate : 4 545 Kbps
Encoded date : UTC 2014-07-17 09:46:38
Writing application : v7.0.0 ('Where We Going') 32bit built on Jun 9 2014 15:08:34
Writing library : libebml v1.3.0 + v1.4.1
DURATION : 00:43:21.664000000
NUMBER_OF_FRAMES : 81302
NUMBER_OF_BYTES : 62439936
_STATISTICS_WRITING_APP : v7.0.0 ('Where We Going') 32bit built on Jun 9 2014 15:08:34
_STATISTICS_WRITING_DATE_UTC : 2014-07-17 09:46:38
_STATISTICS_TAGS : BPS DURATION NUMBER_OF_FRAMES NUMBER_OF_BYTES

Video
ID : 1
Format : AVC
Format/Info : Advanced Video Codec
Format profile : [email protected]
Format settings, CABAC : No
Format settings, ReFrames : 2 frames
Codec ID : V_MPEG4/ISO/AVC
Duration : 43mn 21s
Bit rate : 3 879 Kbps
Width : 1 280 pixels
Height : 720 pixels
Display aspect ratio : 16:9
Frame rate mode : Constant
Frame rate : 23.976 fps
Color space : YUV
Chroma subsampling : 4:2:0
Bit depth : 8 bits
Scan type : Progressive
Bits/(Pixel*Frame) : 0.176
Stream size : 1.17 GiB (85%)
Language : English
Default : Yes
Forced : No
Color primaries : BT.709
Transfer characteristics : BT.709
Matrix coefficients : BT.709

Audio #1
ID : 2
Format : AC-3
Format/Info : Audio Coding 3
Mode extension : CM (complete main)
Format settings, Endianness : Big
Codec ID : A_AC3
Duration : 43mn 21s
Bit rate mode : Constant
Bit rate : 192 Kbps
Channel(s) : 2 channels
Channel positions : Front: L R
Sampling rate : 48.0 KHz
Bit depth : 16 bits
Compression mode : Lossy
Stream size : 59.5 MiB (4%)
Title : Так Треба Продакшн
Language : Ukrainian
Default : Yes
Forced : No

Audio #2
ID : 3
Format : AC-3
Format/Info : Audio Coding 3
Mode extension : CM (complete main)
Format settings, Endianness : Big
Codec ID : A_AC3
Duration : 43mn 21s
Bit rate mode : Constant
Bit rate : 384 Kbps
Channel(s) : 6 channels
Channel positions : Front: L C R, Side: L R, LFE
Sampling rate : 48.0 KHz
Bit depth : 16 bits
Compression mode : Lossy
Stream size : 119 MiB (8%)
Language : English
Default : No
Forced : No
Торрент-файл оновлено (19.08.2014)
Додано 16-20 серії.
Повний сезон!


Скріншоти:


Джерело:
Особиста оцінка: 5 - хороша ідея з поганою реалізацією...

Цитата:
Подяки:
За запис Sando7, OlegCena.
За синхронізацію patriot2305.
За постер ostipko.


Бронзовий реліз (на рейтинг впливає 75% завантаженого)
 Трекер:    Зареєстрований   

Завантажити / скачати серіал українською



відео для новачків



 Зареєстрований:   2014-08-19 14:45
 Розмір:   27.69 GB 
 Оцінка серіалу:   9.2/10 (Голосів: 11)
   
[Captain] 
VIP


З нами з: 19.02.12
Востаннє: 17.08.19
Повідомлень: 1970

2014-07-18 19:15  
Сподіваюсь, обидва сезони покажуть...
Dark Invader 
Модератор відео


З нами з: 06.01.11
Востаннє: 18.08.19
Повідомлень: 2709

2014-07-18 20:32  
[Captain] написано:
Сподіваюсь, обидва сезони покажуть...

Я б на це, не дуже надіявся, так як ICTV любить закупити серіали по 1 сезоні і більше не продовжувати.
Ось наприклад серіал Person of Interest показали 1-й сезон в 2012 році і все... Замість того, що б закупити продовження вони позакупляли купу іншого...
Не давно йшов серіал The Following показали тільки 1-й сезон, хоча їх вже є 2.
Скоріше всього те саме чекає і "Arrow", який має йти після "Революції".

Хоча це все можна виправдати тим, що права на нові сезони, які завершились 2 місяці тому набагато дорожчі.
Так що думаю, через рік буде видно чи буде продовження.

Hurtomivets' 
Свій


З нами з: 09.01.10
Востаннє: 21.07.19
Повідомлень: 8698

2014-07-19 20:20  
Dark Invader 2 написано:
Я б на це, не дуже надіявся, так як ICTV любить закупити серіали по 1 сезоні і більше не продовжувати.

Саме так і буде, і ставити глупої ночі, щоб ніхто не бачив)

Dark Invader 2 написано:
Хоча це все можна виправдати тим, що права на нові сезони, які завершились 2 місяці тому набагато дорожчі.

на мило окупантів грошей у них вистачає, і якщо порівняти число рос. мила з числом іншого мила яке закуповує керівництво каналу, то за окупантське вони платять більше.

Dark Invader 
Модератор відео


З нами з: 06.01.11
Востаннє: 18.08.19
Повідомлень: 2709

2014-08-19 14:46  
Торрент-файл оновлено (19.08.2014)
Додано 16-20 серії.
Повний сезон!

Мельниченко 
Свій


З нами з: 27.08.09
Востаннє: 02.07.16
Повідомлень: 145

2014-08-21 15:03  
У одного мене розсинхронізація звуку з відео?
Dark Invader 
Модератор відео


З нами з: 06.01.11
Востаннє: 18.08.19
Повідомлень: 2709

2014-08-21 16:03  
Мельниченко написано:
У одного мене розсинхронізація звуку з відео?

В якій серії? Бо коли я вставляв доріжки, то перглядав мінімально серії ніби все добре було.

natashelka 
VIP


З нами з: 23.05.10
Востаннє: 17.08.19
Повідомлень: 457

2014-09-16 22:55  
Переглянула 20 серій першого сезону. Раджу і вам. Розсинхрону немає це точно, але дивилась на потужному компі. Серіал відмінний. Власники телеканалів, припиняйте годувати українців російським лайном, краще задублюйте або озвучте Пуститися берега 3-й сезон, Втеча 1-й та 2-й сезони, Революція 2-й сезон, Батьківщина 1-й 2-й 3-й 4-й сезони, Єремія 1-й та 2-й сезони, Нікіта 1-й 2-й 3-й 4-й сезони тощо
Volovik 
VIP


З нами з: 21.02.10
Востаннє: 17.08.19
Повідомлень: 419

2014-09-27 17:47  
комп середнячковий, але розсинхрону теж немає
Mojidirulay 
Забанено
Забанено


З нами з: 09.12.14
Востаннє: 26.01.15
Повідомлень: 2

2014-12-09 09:39  
Bored from the outside when I took the reader feel good.


бот/спамер, видано igor911
Ua.bos_01 
VIP


З нами з: 22.06.15
Востаннє: 17.08.19
Повідомлень: 1569

2015-08-17 10:23  
Сам задум ідеї серіалу хороший, однак на мою думку екранізація трішки підкачала. Проводити зйомки на покинутих будівлях та в лісі весь сезон - це трішки не те, чого очікує глядач, у постапокаліптичному світі.
mrStorM 
Новенький


З нами з: 18.02.12
Востаннє: 15.08.19
Повідомлень: 2

2018-05-25 19:58  
є хто живий роздати серіал???)
Ваш часовий пояс: GMT + 2 Години

Нова тема   Відповісти