Мертвяцька Вечірка: Втрачені кадри + Замордовані Душі / Corpse Party: Missing Footage + Tortured Souls [OVA-1 та OVA-2] [2012, 2013] 720p Ukr/Jap

Нові коментарі

Нова тема   Відповісти
Автор Повідомлення
Arch Enemy 
VIP


З нами з: 30.08.12
Востаннє: 14.08.17
Повідомлень: 644

2014-07-15 21:14  
Мертвяцька Вечірка: Втрачені кадри + Мертвяцька Вечірка: Замордовані Душі



Вікове обмеження: 16+ (присутні сцени насилля та вбивств).
Жанр: жахи, триллер, школа, драма, ґуро
Прем'єра: 02.08.2012, 24.07.2013
Країна: Японія

Аніместудія: asread
Режисер: Іванаґа Акіра
Сейю: Оотані Ікуе, Шімоно Хіро, Сато Ріна, Накамура Юуічі, Кітамура Ері, Какіхара Тецуя, Араі Сатомі, Імаі Асамі, Нанрі Юука, Савашіро Міюкі, Ямамото Аяно, Суґіта Томоказу та інші.

Сюжет:
Бонусна ОВА (Corpse Party: Missing Footage), що входила в склад обмеженого видання дуже популярної в Японії гри Corpse Party -The Anthology- Sachiko no Renai Yuugi Hysteric Birthday 2U (コープスパーティー -THE ANTHOLOGY- サチコの恋愛遊戯Hysteric Birthday 2U).
Ця ОВА являється передісторією до основного сюжету і лише показує нам основних персонажів.
Основний сюжет:
Історія відбувається в Початковій школі Теншін, котру було зачинено та знесено через загадкові вбивства кількох учнів та працівників школи. На її місці було побудовано нову школу Кісараґі.
Однієї дощової ночі, після шкільного фестивалю група учнів з Кісараґі розказуть страшні історії та намагаються викликати привид Сачіко - тієї, що дарує щастя. В результаті ритуалу виникає землетрус, та їх переносить в інший вимір, де школа Теншін все ще існує, а привиди убитих дітей продовжують наводити жах на тих, хто потрапив в це місце. Учні з Кісараґі намагаються знайти шлях додому і вибратися з цієї кривавої пастки, проте один з духів не дає їм спокою і продовжує їх переслідувати.

© Arch_Enemy, AniUA

Список епізодів
00. Мертвяцька Вечірка: Втрачені кадри - виходив окремою OVAшкою (початок історії, знайомство з персонажами)
01. Мертвяцька Вечірка: Замордовані Душі - Різними Дорогами
02. Мертвяцька Вечірка: Замордовані Душі - Розірвані Зв'язки
03. Мертвяцька Вечірка: Замордовані Душі - Невисловлене Кохання
04. Мертвяцька Вечірка: Замордовані Душі - Сумна Дійсність

Кількість серій: 1+4
Загальна тривалість: 11.29 хв. + 117.10 хв.

Відео:
якість:
контейнер:
кодек:
частота кадрів: 23.976 кадрів/сек.
розмір кадру: 1280х720 пікс.
бітрейт: ~5900 (OVA1), ~3800 кбіт/сек (OVA2).
бітність: 8 біт (OVA1), 10 біт (OVA2).

Аудіо # 1:
мова: українська, двоголосе закадрове озвучування.
кодек: Vorbis
кількість каналів: 2.0
бітрейт: 256 кбіт/сек.
частота: 48000 Гц

Аудіо # 2:
мова: японська, оригінал
кодек: Vorbis
кількість каналів: 2.0
бітрейт: 256 кбіт/сек.
частота: 48000 Гц

Субтитри:
мова: українська, тільки написи та пояснення
формат: ASS
тип: програмні, м'які, внутрішні

Джерело озвучення: AniUA

Озвучування: Hennessi та Kraka
Переклад: Gedet (OVA1), halalaleya (OVA2, еп.01-03), MadGuy (OVA2 еп. 04)
Редакція: MadGuy (OVA2)
Таймінг: Nilixx (OVA1, OVA2 еп. 01-02), Kohinsan (OVA2 еп. 03-04)
Робота зі звуком: Nilixx (OVA1, OVA2 еп. 01-02), Arch_Enemy (OVA2 еп. 03-04)
Збірка релізу: Arch_Enemy

Джерело релізу: AniUA
Скріншоти Corpse Party: Missing Footage
Скріншоти Corpse Party: Tortured Souls
Скрінлист Corpse Party: Tortured Souls
MI Corpse Party: Missing Footage

General
Unique ID : 222183204127937931437616658024186018465 (0xA726EDB8884615CF98EEF1246E147AA1)
Complete name : E:\Anime\[AniUA]_Corpse_Party_[Hennessi_and_Kraka]\[AniUA]_Corpse_Party_-_Missing_Footage_[BDRip_x264_1280x720_Vorbis]_[Hennessi_and_Kraka].
Format :
Format version : Version 4 / Version 2
File size : 525 MiB
Duration : 11mn 28s
Overall bit rate mode : Variable
Overall bit rate : 6 392 Kbps
Encoded date : UTC 2014-02-01 12:16:34
Writing application : mkvmerge v6.7.0 ('Back to the Ground') 64bit built on Jan 8 2014 15:10:52
Writing library : libebml v1.3.0 + libmatroska v1.4.1

Video
ID : 1
Format : AVC
Format/Info : Advanced Video Codec
Format profile : High@L4.1
Format settings, CABAC : Yes
Format settings, ReFrames : 7 frames
Codec ID : V_MPEG4/ISO/AVC
Duration : 11mn 28s
Bit rate : 5 903 Kbps
Width : 1 280 pixels
Height : 720 pixels
Display aspect ratio : 16:9
Frame rate mode : Constant
Frame rate : 23.976 fps
Color space : YUV
Chroma subsampling : 4:2:0
Bit depth : 8 bits
Scan type : Progressive
Bits/(Pixel*Frame) : 0.267
Stream size : 472 MiB (90%)
Title : http://aniua.com/
Writing library : core 138 r2358 9e941d1
Encoding settings : cabac=1 / ref=7 / deblock=1:-2:-1 / analyse=0x3:0x133 / me=umh / subme=9 / psy=1 / psy_rd=1.00:0.00 / mixed_ref=1 / me_range=24 / chroma_me=1 / trellis=2 / 8x8dct=1 / cqm=0 / deadzone=21,11 / fast_pskip=1 / chroma_qp_offset=-2 / threads=3 / lookahead_threads=1 / sliced_threads=0 / nr=0 / decimate=0 / interlaced=0 / bluray_compat=0 / constrained_intra=0 / bframes=7 / b_pyramid=2 / b_adapt=2 / b_bias=0 / direct=3 / weightb=1 / open_gop=0 / weightp=2 / keyint=240 / keyint_min=23 / scenecut=40 / intra_refresh=0 / rc_lookahead=60 / rc=2pass / mbtree=0 / bitrate=5903 / ratetol=1.0 / qcomp=0.65 / qpmin=10 / qpmax=51 / qpstep=4 / cplxblur=20.0 / qblur=0.5 / vbv_maxrate=62500 / vbv_bufsize=78125 / nal_hrd=none / ip_ratio=1.40 / pb_ratio=1.30 / aq=1:1.00
Language : Japanese
Default : Yes
Forced : Yes
Matrix coefficients : BT.709

Audio #1
ID : 2
Format : Vorbis
Format settings, Floor : 1
Codec ID : A_VORBIS
Duration : 11mn 28s
Bit rate mode : Variable
Bit rate : 256 Kbps
Channel count : 2 channels
Sampling rate : 48.0 KHz
Compression mode : Lossy
Stream size : 21.0 MiB (4%)
Title : Hennessi and Kraka
Writing library : libVorbis 1.0 (UTC 2002-07-17)
Language : Ukrainian
Default : Yes
Forced : Yes

Audio #2
ID : 3
Format : Vorbis
Format settings, Floor : 1
Codec ID : A_VORBIS
Duration : 11mn 28s
Bit rate mode : Variable
Bit rate : 256 Kbps
Channel count : 2 channels
Sampling rate : 48.0 KHz
Compression mode : Lossy
Stream size : 21.0 MiB (4%)
Title : Original
Writing library : libVorbis 1.0 (UTC 2002-07-17)
Language : Japanese
Default : No
Forced : No

Text
ID : 4
Format : ASS
Codec ID : S_TEXT/ASS
Codec ID/Info : Advanced Sub Station Alpha
Compression mode : Lossless
Title : Signs by Gedet
Language : Ukrainian
Default : Yes
Forced : Yes
MI Corpse Party: Tortured Souls
General
Unique ID : 220078558671184160906876200698783540845 (0xA59196B035998DF89A64853186D9266D)
Complete name : E:\Anime\[AniUA]_Corpse_Party_[Hennessi_and_Kraka]\[AniUA]_Corpse_Party_-_Tortured_Souls_[01]_[BDRip_x264_1280x720_Vorbis]_[Hennessi_and_Kraka].
Format :
Format version : Version 4 / Version 2
File size : 902 MiB
Duration : 29mn 17s
Overall bit rate mode : Variable
Overall bit rate : 4 306 Kbps
Encoded date : UTC 2014-07-15 15:29:20
Writing application : mkvmerge v7.0.0 ('Where We Going') 64bit built on Jun 9 2014 15:16:27
Writing library : libebml v1.3.0 + libmatroska v1.4.1
DURATION : 00:29:07.390000000
NUMBER_OF_FRAMES : 56
NUMBER_OF_BYTES : 6115
_STATISTICS_WRITING_APP : mkvmerge v7.0.0 ('Where We Going') 64bit built on Jun 9 2014 15:16:27
_STATISTICS_WRITING_DATE_UTC : 2014-07-15 15:29:20
_STATISTICS_TAGS : BPS DURATION NUMBER_OF_FRAMES NUMBER_OF_BYTES
Attachment : Imported font from Corpse Party - Tortured Souls - 01.ass / Imported font from Corpse Party - Tortured Souls - 01.ass

Video
ID : 1
Format : AVC
Format/Info : Advanced Video Codec
Format profile : High 10@L4.1
Format settings, CABAC : Yes
Format settings, ReFrames : 9 frames
Codec ID : V_MPEG4/ISO/AVC
Duration : 29mn 17s
Bit rate : 3 708 Kbps
Width : 1 280 pixels
Height : 720 pixels
Display aspect ratio : 16:9
Frame rate mode : Constant
Frame rate : 23.976 fps
Color space : YUV
Chroma subsampling : 4:2:0
Bit depth : 10 bits
Scan type : Progressive
Bits/(Pixel*Frame) : 0.168
Stream size : 777 MiB (86%)
Title : http://aniua.com/
Writing library : core 132 r2309 3b1f1f7
Encoding settings : cabac=1 / ref=9 / deblock=1:-2:-2 / analyse=0x3:0x133 / me=umh / subme=9 / psy=1 / psy_rd=0.90:0.00 / mixed_ref=1 / me_range=24 / chroma_me=1 / trellis=2 / 8x8dct=1 / cqm=0 / deadzone=21,11 / fast_pskip=1 / chroma_qp_offset=-2 / threads=6 / lookahead_threads=1 / sliced_threads=0 / nr=0 / decimate=0 / interlaced=0 / bluray_compat=0 / constrained_intra=0 / bframes=8 / b_pyramid=2 / b_adapt=2 / b_bias=0 / direct=1 / weightb=1 / open_gop=0 / weightp=2 / keyint=250 / keyint_min=23 / scenecut=40 / intra_refresh=0 / rc=crf / mbtree=0 / crf=19.0 / qcomp=0.70 / qpmin=9 / qpmax=42 / qpstep=4 / ip_ratio=1.40 / pb_ratio=1.30 / aq=1:0.90
Language : Japanese
Default : Yes
Forced : Yes
DURATION : 00:29:17.756000000
NUMBER_OF_FRAMES : 42144
NUMBER_OF_BYTES : 835810766
_STATISTICS_WRITING_APP : mkvmerge v7.0.0 ('Where We Going') 64bit built on Jun 9 2014 15:16:27
_STATISTICS_WRITING_DATE_UTC : 2014-07-15 15:29:20
_STATISTICS_TAGS : BPS DURATION NUMBER_OF_FRAMES NUMBER_OF_BYTES

Audio #1
ID : 2
Format : Vorbis
Format settings, Floor : 1
Codec ID : A_VORBIS
Duration : 29mn 17s
Bit rate mode : Variable
Bit rate : 256 Kbps
Channel(s) : 2 channels
Sampling rate : 48.0 KHz
Compression mode : Lossy
Stream size : 53.6 MiB (6%)
Title : Hennessi and Kraka
Writing library : libVorbis 1.0 (UTC 2002-07-17)
Language : Ukrainian
Default : Yes
Forced : Yes

Audio #2
ID : 3
Format : Vorbis
Format settings, Floor : 1
Codec ID : A_VORBIS
Duration : 29mn 17s
Bit rate mode : Variable
Bit rate : 256 Kbps
Channel(s) : 2 channels
Sampling rate : 48.0 KHz
Compression mode : Lossy
Stream size : 53.6 MiB (6%)
Title : Original
Writing library : libVorbis (Omnipresent) (20120203 (Omnipresent))
Language : Japanese
Default : No
Forced : No

Text
ID : 4
Format : ASS
Codec ID : S_TEXT/ASS
Codec ID/Info : Advanced Sub Station Alpha
Compression mode : Lossless
Title : Signs by MadGuy
Language : Ukrainian
Default : Yes
Forced : Yes


Авторський реліз (завантажувати можна без реєстрації)
 Трекер:    Зареєстрований   

Завантажити / скачати аніме українською



відео для новачків



 Зареєстрований:   2015-02-25 01:00
 Розмір:   5.02 GB 
 Оцінка аніме:   10/10 (Голосів: 6)
   
Arch Enemy 
VIP


З нами з: 30.08.12
Востаннє: 14.08.17
Повідомлень: 644

2014-07-15 21:17  
Якось так)))

Сильно криваві скріни викладати не став - бо 100% видалять)))

Ще один реліз на тему: "AniUA продовжує робити усілякі містичні трешаки з маніяками та вбивствами".

Vova256 
Поважний учасник


З нами з: 06.01.13
Востаннє: 07.08.17
Повідомлень: 184

2014-07-16 00:57  
Круть... Це для мене Rolleyes (4)

Додано через 1 хвилину 15 секунд:

Дуже дякую Арче Вам, і всій команді за реліз)

Arch Enemy 
VIP


З нами з: 30.08.12
Востаннє: 14.08.17
Повідомлень: 644

2014-07-16 15:52  
Vova256 написано:
Дуже дякую Арче Вам, і всій команді за реліз)

та на здоров'я!
Нам після цього релізу ще декілька пропозицій на щось подібне надійшло)))

Другий епізод вже озвучено і потаймено - чекає обробки та перевірки на косяки.
Третій перекладається.

Якби ще цей реліз хтось перевірив та закріпив зверху, а то висить тут внизу... ніхто його не бачить...

Arch Enemy 
VIP


З нами з: 30.08.12
Востаннє: 14.08.17
Повідомлень: 644

2014-07-31 19:49  
Реліз Оновлено - Додано 2 Серію

don pedro 
Попереджень: 1
Попереджень: 1 


З нами з: 29.06.11
Востаннє: 17.08.17
Повідомлень: 10032

2014-07-31 21:06  
Якщо не секрет, питання до фанатів: школа в аніме - якийсь фетиш? Чи це все "заточене" для підліткової аудиторії?
Arch Enemy 
VIP


З нами з: 30.08.12
Востаннє: 14.08.17
Повідомлень: 644

2014-07-31 21:51  
don pedro написано:
Якщо не секрет, питання до фанатів: школа в аніме - якийсь фетиш? Чи це все "заточене" для підліткової аудиторії?

Обидва варіанти вірні))))
Але не сказав би, що школа постійно зустрічається в тому, чи іншому аніме.
На мій погляд, акцентування на подіях саме в школі займає мабуть максимум до 30% в усіх аніме творах, а може й навіть менше. В інших це або ж нормальні персонажі, або ж персонажі шкільного віку, проте сама школа там йде як фон і особливих подій в ній може не відбуватись. (пронаймні це з тієї великої кількості серіалів, які я дивився за останні 10 років).
Якось так))))

don pedro 
Попереджень: 1
Попереджень: 1 


З нами з: 29.06.11
Востаннє: 17.08.17
Повідомлень: 10032

2014-07-31 22:39  
Arch Enemy
Дякую, а то в мене склалось враження, що це якийсь фетиш. Ну а дуже високі худі дівчата у міні-спідниця з з гігантськими очима на пів обличчя?

Arch Enemy 
VIP


З нами з: 30.08.12
Востаннє: 14.08.17
Повідомлень: 644

2014-07-31 23:09  
don pedro написано:
Ну а дуже високі худі дівчата у міні-спідниця з з гігантськими очима на пів обличчя?

Ну, побудова тіла у них також буває різна, але восновному таки переважають певні шаблони)))
Щодо очей, то є такий доволі цікавий вислів: "Очі — дзеркало душі", тому японські манґаки та аніматори приділяють велику увагу саме промальовці деталей очей та виділяють їх само розміром. Звичайно ж вони повинні мати певні пропорції, що дуже важливо, інакше у випадку занад-то малих або великих - персонаж буде виглядати як інвалід. І знову ж таки - промальовка тих самих очей залежить від певного шаблону побудови/геометрії обличчя/тіла, це все між собою пов'язане.
Щодо спідниць, то це вже залежить від фантазії автора та жанру))).

don pedro 
Попереджень: 1
Попереджень: 1 


З нами з: 29.06.11
Востаннє: 17.08.17
Повідомлень: 10032

2014-07-31 23:15  
Arch Enemy
Ага. Дякую за пояснення, а то я знову відкриваю для себе аніме. Останнє, що свого часу дивився - серіал "Кендіс" про медсестру періоду Першої світової війни, "Трансформерів" і щось про "Вольтрона" (чи це була азіатська пародія на "Трансформерів" і "Вольтрона"?), і ще якийсь великий, двохгодинний мультфільм про космос. Там ще був головний герой Танасо Тесуро (якщо не помиляюсь), а мультфіль називався "Галактичний експрес" (?).

Річард 
Відео Гуртом - підтримка та поширення
Відео Гуртом - підтримка та поширення


З нами з: 17.01.10
Востаннє: 17.08.17
Повідомлень: 459

2014-07-31 23:30  
Arch Enemy
часом буде схоже не на
це?
якщо із розрізом очей напартачать Wide grin

don pedro 
Попереджень: 1
Попереджень: 1 


З нами з: 29.06.11
Востаннє: 17.08.17
Повідомлень: 10032

2014-07-31 23:44  
Річард
Тьху. Потвори якісь. Мутанти або інопланетяни.

Arch Enemy 
VIP


З нами з: 30.08.12
Востаннє: 14.08.17
Повідомлень: 644

2014-07-31 23:54  
Кендіс - наскільки пам'ятаю зараз якийсь канал його транслює, в принципі там старий стиль промальовки.
Трансформери і Вольтрон - різні речі і воні ніяк не можуть бути пародією на те чи інше - звичайний жанр "меха".
І доречі, Трансформерів малювали японці)))

don pedro написано:
а мультфіль називався "Галактичний експрес"

Матсумото Лейджі... У нього свій певний стиль промальовки персонажів, і його легко впізнати серед інших))) Та й багато його творінь пов'язані між собою.

Річард написано:
часом буде схоже не на це? якщо із розрізом очей напартачать

Гарний приклад)))
А ще буваєколи аніматори добряче гульнуть на корпоративі, а потім зранку наздоганяють хвости і як наслідок маємо 13ту серію The Third - Aoi Hitomi no Shōjo з жахливою промальовкою, на відміну від інших серій.

don pedro написано:
Тьху. Потвори якісь. Мутанти або інопланетяни.

буває і гірше...

don pedro 
Попереджень: 1
Попереджень: 1 


З нами з: 29.06.11
Востаннє: 17.08.17
Повідомлень: 10032

2014-08-02 04:20  
Arch Enemy
Я про те, що спершу були справжні "Трнсформери" і "Вольтрон", а потім почалась якась лажа, навіть імена змінили, і деякі деталі, не так стало намальовано, а в титрах з'явились ієрогліфи, чого до того не було. І я припинив те дивитись, бо стало вже не те.

Arch Enemy 
VIP


З нами з: 30.08.12
Востаннє: 14.08.17
Повідомлень: 644

2014-11-10 20:15  
10.11.2014 - Реліз Оновлено - Додано 3 Серію

Arch Enemy 
VIP


З нами з: 30.08.12
Востаннє: 14.08.17
Повідомлень: 644

2015-02-25 01:16  
Реліз Оновлено - Додано 4 [останню] Серію


Також об'єднав 2 релізи в 1, бо вони між тісно собою пов'язані.

Іще мінус один реліз...
Гадаю щось подібне візьмемо у майбутньому, також, якщо є пропозиції - раді будемо їх бачити, та що сподобається - візьмемо до уваги.
Всім дякую.

kapinos 
Новенький


З нами з: 07.05.10
Востаннє: 14.03.17
Повідомлень: 15

2015-03-05 21:38  
Не знаю, може я якось не так дивився, однак мені здалось що історія подається здоровими, обірваними шматками - ніби все правильно, однак на початку нового єпізоду зустрічаєшь персонажів не там де вони були в кінці попередньої. Як можна заповнити проміжки між серіями?
Arch Enemy 
VIP


З нами з: 30.08.12
Востаннє: 14.08.17
Повідомлень: 644

2015-04-05 22:55  
kapinos написано:
Як можна заповнити проміжки між серіями?

Граючи в гру цієї серії (і не одну).

hetzendorf 
Відео Гуртом - підтримка та поширення
Відео Гуртом - підтримка та поширення


З нами з: 23.07.15
Востаннє: 17.08.17
Повідомлень: 401

2017-02-24 01:53  
Файна річ, хоч і гурятина @_@ Взагалі не люблю розчленування, але в промальовці хоча б тьмяніє натуралістичність. Плюс все скомпенсовано захоплюючим сюжетом.
9/10

Ваш часовий пояс: GMT + 2 Години

Нова тема   Відповісти