DZIDZIO - Павук (без цензури) (2014)

Нові коментарі

Нова тема   Відповісти
Автор Повідомлення
-_-B_E_N_D_E_R-_- 
Оцифрування книг Гуртом
Оцифрування книг Гуртом


З нами з: 09.01.14
Востаннє: 17.08.17
Повідомлень: 162

2014-07-09 15:57  
DZIDZIO - Павук (без цензури) (2014)

DZIDZIO - Павук (без цензури) (2014)


Жанр: комедія, пригодницький
Країна: Україна

Опис:
Коротке відео з великою кількістю нецензурної лексики і дорослої тематики


Тривалість: 00:18:49
Якість:
Відео:
кодек:
розмір кадру: 1920 х 1080
бітрейт: 3 175 кб/с

Аудіо:
мова: українська
переклад: оригінал
кодек: 2.0
бітрейт: 128кб/с
Скріншоти
Info

Video
ID : 2
Format : AVC
Format/Info : Advanced Video Codec
Format profile : [email protected]
Format settings, CABAC : Yes
Format settings, ReFrames : 2 frames
Codec ID : avc1
Codec ID/Info : Advanced Video Coding
Duration : 18mn 49s
Bit rate : 3 175 Kbps
Width : 1 920 pixels
Height : 1 080 pixels
Display aspect ratio : 16:9
Frame rate mode : Constant
Frame rate : 25.000 fps
Color space : YUV
Chroma subsampling : 4:2:0
Bit depth : 8 bits
Scan type : Progressive
Bits/(Pixel*Frame) : 0.061
Stream size : 427 MiB (96%)

Audio
ID : 1
Format :
Format/Info : Advanced Audio Codec
Format profile : LC
Codec ID : 40
Duration : 18mn 49s
Duration_LastFrame : -10ms
Bit rate mode : Variable
Bit rate : 128 Kbps
Maximum bit rate : 512 Kbps
Channel(s) : 2 channels
Channel positions : Front: L R
Sampling rate : 44.1 KHz
Compression mode : Lossy
Stream size : 17.2 MiB (4%)
Language : Ukrainian
Джерело:
Особиста оцінка: 1 - не раджу дивитися


 Трекер:    Зареєстрований   

Завантажити / скачати передачу українською



відео для новачків



 Зареєстрований:   2014-07-09 15:57
 Розмір:   445 MB 
 Оцінка передачі:   6/10 (Голосів: 21)
   
wolesj 
VIP


З нами з: 15.07.12
Востаннє: 16.08.17
Повідомлень: 453

2014-07-09 18:27  
Особиста оцінка як додаткова реклама? Wink (2)
sollo995 
Новенький


З нами з: 21.02.11
Востаннє: 17.08.17
Повідомлень: 8

2014-07-09 21:19  
тоді навіщо ти це викладаєш!
-_-B_E_N_D_E_R-_- 
Оцифрування книг Гуртом
Оцифрування книг Гуртом


З нами з: 09.01.14
Востаннє: 17.08.17
Повідомлень: 162

2014-07-09 21:26  
Цитата:
тоді навіщо ти це викладаєш!
А раптом комусь сподобається
ukrayinez 
Новенький


З нами з: 29.05.11
Востаннє: 14.08.17
Повідомлень: 11

2014-07-10 11:24  
Мені наприклад сподобалось=)
zaika 
VIP


З нами з: 01.07.12
Востаннє: 17.08.17
Повідомлень: 1050

2014-07-10 12:35  
Мені теж. Ця мова, хоч із матюками, звучить для мене як музика. В суціль зрусифікованих містах (Тарас Чубай) матюкаються іще крутіше, включаючи і дітей. Скоріше не матюкаються, тут так розмовляють. А у фільмі, крізь ті чужі матюки, пробивається жива і чиста як сльоза мова. Такої на УТБ не почуєш.
ArtemVolsky 
Новенький


З нами з: 28.12.13
Востаннє: 09.07.16
Повідомлень: 5

2014-12-22 19:41  
І мені теж подобається.
Нарешті, почало з"являтись щось наше українське, щось про реальне життя , де ми можемо іноді , навіть, впізнати себеWink (1)
Це жива справжня мова , така яка вона є.
Кому "ріжуть" вухо матюки, слухайте Чайковського.

Ваш часовий пояс: GMT + 2 Години

Нова тема   Відповісти